1 сезон

1 сезон

iTunes

1

КиноПоиск HD

Кинопоиск HD

iTunes

13

1 сезон

RePack

30

Новинка

ВАЖНО

ИГРА 18+

pack

RePack

MK11
pack

Легкие деньги

RePack

jed

RePack

fifa19

RePack

RDR2

RePack

NEED FOR SPEED™ PAYBACK

4 сезон

9 сезон

Бесстыжие 9 сезон

Все сериалы

все сериалы на PB.wtf

RePack

FAR CRY 5
  
Magnet ссылка

Джон Уик 2 / John Wick: Chapter Two (Чад Стахелски) [2017, боевик, триллер, криминал, WEB-DLRip-AVC] AVO [Есарев] - ExKinoRay piratbit.pw

Джон Уик 2 через торрент piratbit.pw

Размер: 2.02 GB | Добавлен: 3 года 10 мес. назад | Торрент скачан:274 раза
Скачать  

25-05-2017 01:35 Джон Уик 2 Скачать торрент  

Информация о фильме
Название: Джон Уик 2
Оригинальное название: John Wick: Chapter Two
Год выпуска: 2017
Жанр: Боевик, триллер, криминал
Страна: США
Студия: 87Eleven, Lionsgate, Summit Entertainment, Thunder Road
Продолжительность: 01:57:14
Перевод: Авторский | Дмитрий Есарев
Режиссер: Чад Стахелски
В ролях: Киану Ривз, Риккардо Скамарчио, Иэн МакШейн, Руби Роуз, Коммон, Клаудия Джерини, Лэнс Реддик, Лоуренс Фишборн, Тобиаш Сигал, Джон Легуизамо

Описание: Когда-то Джон Уик был лучшим киллером в мире, но он устал от бесконечных убийств и теперь его душа требует покоя. Джон отходит от дел, но, не успев насладиться жизнью нормального человека, ему вновь приходится взять в руки оружие. Дело в том, что его бывший напарник собирается возглавить тайную гильдию наемных убийц и, данная Джоном кровная клятва, вынуждает героя прийти на помощь коллеге. Уик отправляется в Рим, где ему предстоит вступить в противостояние с одним из самых смертоносных убийц в мире.


rating

Файл
Формат: MKV
Качество: WEB-DLRip-AVC
Видео: AVC, 1024х426 (2.40:1), 1701 kbps, 25,000 fps, 0,156 bpp
Аудио #01: 48 kHz, AC3, 5.1, 384 Kbps | RUS |
Аудио #02: 48 kHz, AC3, 5.1, 384 Kbps | Оригинал | ENG

Навигация по главам: есть
General
Unique ID : 215557833896713150478648275521271851208 (0xA22AEDBF9A96F9ED972981F7897568C8)
Complete name : D:\John.Wick.2.2017.AVO.WEB-DLRip.AVC.ExKinoRay.mkv
Format : Matroska
Format version : Version 2
File size : 2.02 GiB
Duration : 1 h 57 min
Overall bit rate : 2 466 kb/s
Movie name : John Wick: Chapter Two (2017) from ExKinoRay
Encoded date : UTC 2017-05-25 00:38:48
Writing application : mkvmerge v5.8.0 ('No Sleep / Pillow') built on Sep 2 2012 15:37:04
Writing library : libebml v1.2.3 + libmatroska v1.3.0

Video
ID : 1
Format : AVC
Format/Info : Advanced Video Codec
Format profile : High@L4.1
Format settings, CABAC : Yes
Format settings, ReFrames : 10 frames
Codec ID : V_MPEG4/ISO/AVC
Duration : 1 h 57 min
Bit rate : 1 701 kb/s
Width : 1 024 pixels
Height : 426 pixels
Display aspect ratio : 2.40:1
Frame rate mode : Constant
Frame rate : 25.000 FPS
Color space : YUV
Chroma subsampling : 4:2:0
Bit depth : 8 bits
Scan type : Progressive
Bits/(Pixel*Frame) : 0.156
Stream size : 1.35 GiB (67%)
Title : Enigma
Writing library : x264 core 144 r2525 40bb568
Encoding settings : cabac=1 / ref=10 / deblock=1:-3:-3 / analyse=0x3:0x113 / me=umh / subme=10 / psy=1 / psy_rd=1.00:0.07 / mixed_ref=1 / me_range=32 / chroma_me=1 / trellis=2 / 8x8dct=1 / cqm=0 / deadzone=21,11 / fast_pskip=1 / chroma_qp_offset=-3 / threads=12 / lookahead_threads=2 / sliced_threads=0 / nr=0 / decimate=0 / interlaced=0 / bluray_compat=0 / constrained_intra=0 / bframes=9 / b_pyramid=2 / b_adapt=2 / b_bias=0 / direct=3 / weightb=1 / open_gop=0 / weightp=2 / keyint=250 / keyint_min=25 / scenecut=40 / intra_refresh=0 / rc_lookahead=40 / rc=2pass / mbtree=0 / bitrate=1701 / ratetol=1.0 / qcomp=0.60 / qpmin=0 / qpmax=51 / qpstep=4 / cplxblur=20.0 / qblur=0.5 / vbv_maxrate=50000 / vbv_bufsize=62500 / nal_hrd=none / filler=0 / ip_ratio=1.40 / pb_ratio=1.30 / aq=1:1.00
Default : Yes
Forced : No
Color range : Limited
Color primaries : BT.709
Transfer characteristics : BT.709
Matrix coefficients : BT.709

Audio #1
ID : 2
Format : AC-3
Format/Info : Audio Coding 3
Mode extension : CM (complete main)
Format settings, Endianness : Big
Codec ID : A_AC3
Duration : 1 h 57 min
Bit rate mode : Constant
Bit rate : 384 kb/s
Channel(s) : 6 channels
Channel positions : Front: L C R, Side: L R, LFE
Sampling rate : 48.0 kHz
Frame rate : 31.250 FPS (1536 spf)
Compression mode : Lossy
Stream size : 322 MiB (16%)
Title : AVO (Esarev)
Language : Russian
Default : Yes
Forced : No

Audio #2
ID : 3
Format : AC-3
Format/Info : Audio Coding 3
Mode extension : CM (complete main)
Format settings, Endianness : Big
Codec ID : A_AC3
Duration : 1 h 57 min
Bit rate mode : Constant
Bit rate : 384 kb/s
Channel(s) : 6 channels
Channel positions : Front: L C R, Side: L R, LFE
Sampling rate : 48.0 kHz
Frame rate : 31.250 FPS (1536 spf)
Compression mode : Lossy
Stream size : 322 MiB (16%)
Language : English
Default : No
Forced : No

Menu
00:00:00.000 : en:Глава 1
00:06:15.680 : en:Глава 2
00:12:56.000 : en:Глава 3
00:18:36.400 : en:Глава 4
00:25:30.280 : en:Глава 5
00:33:12.960 : en:Глава 6
00:38:58.080 : en:Глава 7
00:44:27.400 : en:Глава 8
00:51:40.600 : en:Глава 9
00:58:11.920 : en:Глава 10
01:03:11.520 : en:Глава 11
01:09:33.040 : en:Глава 12
01:14:44.760 : en:Глава 13
01:20:55.320 : en:Глава 14
01:27:26.400 : en:Глава 15
01:33:17.960 : en:Глава 16
01:39:14.640 : en:Глава 17
01:44:21.080 : en:Глава 18
Релиз от:

Автор релиза: piratbit.pw



Скачать Джон Уик 2 через торрент http://i93.fastpic.ru/big/2017/0522/1b/951104a06f1d71f45ec308bc34666a1b.jpg Скачать фильм Джон Уик 2 через торрент бесплантно в хорошем качестве Описание: Когда-то Джон Уик был лучшим киллером в мире, но он устал от бесконечных убийств и теперь его душа требует покоя. Джон отходит от ... 8.2 10 5
Info! Золотая раздача, скачанное не засчитывается.
Торрент: Зарегистрирован [2017-05-25 01:35] · скачан: 274 раз
Статус: √ проверено
Размер: 2.02 GB
Как cкачать? Как скачать Джон Уик 2 через торрент | UTorrent

% Раздел Тема Автор DL S | L
Фильмы 2017 [DVDrip, WEB-DLRip, HDrip] (DUB, MVO) [ 2.41 GB ] Джон Уик 2 / John Wick: Chapter Two [2017 HDRip-AVC] - [] - ExKinoRay Enigma2010 Скачать
3 | 0
Фильмы с авторской озвучкой [ 2.68 GB ] Джон Уик 2 / John Wick: Chapter Two [2017 HDRip-AVC] 2xAVO - ExKinoRay Enigma2010 Скачать
1 | 0
Фильмы 2017 [DVDrip, WEB-DLRip, HDrip] (DUB, MVO) [ 1.71 GB ] Джон Уик 2 / John Wick: Chapter Two [2017 WEB-DLRip-AVC] - - ExKinoRay Enigma2010 Скачать
3 | 0

28-11-2019 20:33  

Отключить всю рекламу на сайте

    Дорогой пользователь! Огромная просьба, поблагодарите релизера, оцените раздачу и оставьте свои комментарий, если Вы скачали Джон Уик 2 через торрент бесплатно! Внесите свою лепту в развитие PiratBit!
    Комментировать посты могут только пользователи прошедшие не сложную регистрацию
    Показать сообщения:    

    Джон Уик 2 через торрент
    Скачать бесплатно Джон Уик 2
    Джон Уик 2 скачать торрент
    Джон Уик 2 смотреть онлайн
    Cкачать фильм Джон Уик 2 бесплатно
    Джон Уик 2 скачать торрент в хорошем качестве
    Джон Уик 2 смотреть онлайн бесплатно в хорошем качестве


    Вы не можете начинать темы
    Вы не можете отвечать на сообщения
    Вы не можете редактировать свои сообщения
    Вы не можете удалять свои сообщения
    Вы не можете голосовать в опросах
    Вы не можете прикреплять файлы к сообщениям
    Вы можете скачивать файлы