1 сезон

1 сезон

iTunes

1

КиноПоиск HD

Кинопоиск HD

iTunes

13

1 сезон

RePack

30

Новинка

ВАЖНО

ИГРА 18+

pack

RePack

MK11
pack

Легкие деньги

RePack

jed

RePack

fifa19

RePack

RDR2

RePack

NEED FOR SPEED™ PAYBACK

4 сезон

9 сезон

Бесстыжие 9 сезон

Все сериалы

все сериалы на PB.wtf

RePack

FAR CRY 5
  
Magnet ссылка

Монти Уолш / Monte Walsh (Уильям А. Фрейкер) [1970, вестерн, BDRip 720p by msltel] AVO piratbit.pw

Монти Уолш через торрент piratbit.pw

Размер: 3.53 GB | Добавлен: 3 года 10 мес. назад | Торрент скачан:4 раза
Скачать  

24-05-2017 05:52 Монти Уолш Скачать торрент  

Название: Монти Уолш
Оригинальное название: Monte Walsh
Год выпуска: 1970
Страна: США
Жанр: вестерн
Продолжительность: 01:39:07
Перевод: авторский

Режиссёр: Уильям А. Фрейкер

В ролях: Ли Марвин, Жанна Моро, Джек Пэланс, Митч Райан, Джим Дэвис, Г.Д. Спрэдлин, Джон Хадкинс, Рэймонд Гут, Джон МакКи, Майкл Конрад

Описание: По мере приближения нового века стареющий ковбой старается придерживаться тех традиций, которые сделали его век легендой. В то время как его тихий городок превращается в опустевшее место, как его друзья и любимые приходят и уходят, самыми сложными и загадочными для Монти Уолша навсегда остаются человеческое сердце и душа...



Качество: BDRip 720p
Формат: MKV
Видео: MPEG-4 AVC, 4715 Kбит/с, 1280x546
Аудио 1: русский, AC3, 192 kbps, 2 ch [авторский, Сергей Кузнецов]
Аудио 2: английский, AC3, 192 kbps, 2 ch, 48 kHz [оригинал]
Субтитры 1: русские
Субтитры 2: английские
Имеются неименованные главы/чаптеры.
Общее
Уникальный идентификатор : 191768664667175030206620632851515289622 (0x90454D26701DFF1CB07467B29AB9B016)
Полное имя : D:\Video\Монти Уолш.1970.BDRip.720p by msltel.mkv
Формат : Matroska
Версия формата : Version 4 / Version 2
Размер файла : 3,53 Гбайт
Продолжительность : 1 ч. 39 м.
Общий поток : 5101 Кбит/сек
Название фильма : Rip by msltel
Дата кодирования : UTC 2017-05-24 02:20:36
Программа кодирования : mkvmerge v8.2.0 ('World of Adventure') 64bit
Библиотека кодирования : libebml v1.3.1 + libmatroska v1.4.2

Видео
Идентификатор : 1
Формат : AVC
Формат/Информация : Advanced Video Codec
Профиль формата : High@L4.1
Параметр CABAC формата : Да
Параметр ReFrames формата : 9 кадров
Идентификатор кодека : V_MPEG4/ISO/AVC
Продолжительность : 1 ч. 39 м.
Битрейт : 4715 Кбит/сек
Ширина : 1280 пикселей
Высота : 546 пикселей
Соотношение сторон : 2,35:1
Режим частоты кадров : Постоянный
Частота кадров : 23,976 (24000/1001) кадра/сек
Цветовое пространство : YUV
Субдискретизация насыщенности : 4:2:0
Битовая глубина : 8 бит
Тип развёртки : Прогрессивная
Бит/(Пиксели*Кадры) : 0.281
Размер потока : 3,26 Гбайт (92%)
Библиотека кодирования : x264 core 146 r2538 121396c
Настройки программы : cabac=1 / ref=9 / deblock=1:-3:-2 / analyse=0x3:0x113 / me=umh / subme=11 / psy=1 / psy_rd=1.00:0.15 / mixed_ref=1 / me_range=32 / chroma_me=1 / trellis=2 / 8x8dct=1 / cqm=0 / deadzone=21,11 / fast_pskip=0 / chroma_qp_offset=-3 / threads=6 / lookahead_threads=1 / sliced_threads=0 / nr=0 / decimate=1 / interlaced=0 / bluray_compat=0 / constrained_intra=0 / bframes=12 / b_pyramid=2 / b_adapt=2 / b_bias=0 / direct=1 / weightb=1 / open_gop=0 / weightp=2 / keyint=230 / keyint_min=23 / scenecut=40 / intra_refresh=0 / rc_lookahead=40 / rc=crf / mbtree=0 / crf=20.5 / qcomp=0.60 / qpmin=0 / qpmax=69 / qpstep=4 / vbv_maxrate=62500 / vbv_bufsize=78125 / crf_max=0.0 / nal_hrd=none / filler=0 / ip_ratio=1.40 / pb_ratio=1.30 / aq=1:1.00
Язык : English
Default : Да
Forced : Нет

Аудио #1
Идентификатор : 2
Формат : AC-3
Формат/Информация : Audio Coding 3
Параметр Endianness формата : Big
Идентификатор кодека : A_AC3
Продолжительность : 1 ч. 39 м.
Вид битрейта : Постоянный
Битрейт : 192 Кбит/сек
Каналы : 2 канала
Расположение каналов : Front: L R
Частота : 48,0 КГц
Частота кадров : 31,250 кадров/сек (1536 spf)
Битовая глубина : 16 бит
Метод сжатия : С потерями
Размер потока : 136 Мбайт (4%)
Заголовок : AVO (Сергей Кузнецов)
Язык : Russian
ServiceKind/String : Complete Main
Default : Да
Forced : Нет

Аудио #2
Идентификатор : 3
Формат : AC-3
Формат/Информация : Audio Coding 3
Параметр Endianness формата : Big
Идентификатор кодека : A_AC3
Продолжительность : 1 ч. 39 м.
Вид битрейта : Постоянный
Битрейт : 192 Кбит/сек
Каналы : 2 канала
Расположение каналов : Front: L R
Частота : 48,0 КГц
Частота кадров : 31,250 кадров/сек (1536 spf)
Битовая глубина : 16 бит
Метод сжатия : С потерями
Размер потока : 136 Мбайт (4%)
Заголовок : original
Язык : English
ServiceKind/String : Complete Main
Default : Нет
Forced : Нет

Текст #1
Идентификатор : 4
Формат : UTF-8
Идентификатор кодека : S_TEXT/UTF8
Идентификатор кодека/Информация : UTF-8 Plain Text
Продолжительность : 1 ч. 34 м.
Битрейт : 45 бит/сек
ElementCount : 710
Размер потока : 31,9 Кбайт (0%)
Заголовок : русские
Язык : Russian
Default : Нет
Forced : Нет

Текст #2
Идентификатор : 5
Формат : UTF-8
Идентификатор кодека : S_TEXT/UTF8
Идентификатор кодека/Информация : UTF-8 Plain Text
Продолжительность : 1 ч. 35 м.
Битрейт : 32 бит/сек
ElementCount : 797
Размер потока : 22,7 Кбайт (0%)
Заголовок : английские
Язык : English
Default : Нет
Forced : Нет

Меню
00:00:00.000 : en:00:00:00.000
00:04:10.167 : en:00:04:10.167
00:10:47.730 : en:00:10:47.730
00:22:00.402 : en:00:22:00.402
00:26:35.177 : en:00:26:35.177
00:34:44.249 : en:00:34:44.249
00:47:06.032 : en:00:47:06.032
00:54:24.136 : en:00:54:24.136
01:03:01.861 : en:01:03:01.861
01:13:59.435 : en:01:13:59.435
01:23:52.736 : en:01:23:52.736
piratbit.pw



Скачать Монти Уолш через торрент http://s018.radikal.ru/i520/1705/8f/8bea13d452c7.jpg Скачать фильм Монти Уолш через торрент бесплантно в хорошем качестве Описание: По мере приближения нового века стареющий ковбой старается придерживаться тех традиций, которые сделали его век легендой. В то ... 10 10 1
Info! Золотая раздача, скачанное не засчитывается.
Торрент: Зарегистрирован [2017-05-24 05:52] · скачан: 4 раз
Статус: √ проверено
Размер: 3.53 GB
Как cкачать? Как скачать Монти Уолш через торрент | UTorrent

% Раздел Тема Автор DL S | L
Фильмы с авторской озвучкой [ 8.5 GB ] Монти Уолш / Monte Walsh [1970 BDRip 1080p by msltel] AVO msltel Скачать
1 | 0

28-11-2019 20:33  

Отключить всю рекламу на сайте

    Дорогой пользователь! Огромная просьба, поблагодарите релизера, оцените раздачу и оставьте свои комментарий, если Вы скачали Монти Уолш через торрент бесплатно! Внесите свою лепту в развитие PiratBit!
    Комментировать посты могут только пользователи прошедшие не сложную регистрацию
    Показать сообщения:    

    Монти Уолш через торрент
    Скачать бесплатно Монти Уолш
    Монти Уолш скачать торрент
    Монти Уолш смотреть онлайн
    Cкачать фильм Монти Уолш бесплатно
    Монти Уолш скачать торрент в хорошем качестве
    Монти Уолш смотреть онлайн бесплатно в хорошем качестве


    Вы не можете начинать темы
    Вы не можете отвечать на сообщения
    Вы не можете редактировать свои сообщения
    Вы не можете удалять свои сообщения
    Вы не можете голосовать в опросах
    Вы не можете прикреплять файлы к сообщениям
    Вы можете скачивать файлы