Ссылка на приватное зеркало нашего сайта всего за 1$. Внимание количество ограничено!!!

2 сезон

iTunes

iTunes

1

iTunes

iTunes

iTunes

WEBRip

iTunes

30
pack

Вам бонус

ВАЖНО

!!Акция!!

Alien_RageХит недели

RePack

Horizon Zero Dawn

ИГРА 18+

pack

RePack

jed

!!Акция!!

Alien_Rage

RePack

fifa19

RePack

Assassins Creed: Odyssey

RePack

NEED FOR SPEED™ PAYBACK

4 сезон

9 сезон

Бесстыжие 9 сезон

Все сериалы

все сериалы на PB.wtf

RePack

FAR CRY 5
  

Звёздный мальчик (Анатолий Дудоров, Евгений Зильберштейн) [1957, CCCР, детский фильм, сказка, SATRip от AVP Studio] piratbit.pw

Звёздный мальчик через торрент piratbit.pw

Размер: 744 MB | Добавлен: 3 года 4 мес. назад | Торрент скачан:4 раза
Скачать  

19-05-2017 08:03 Звёздный мальчик Скачать торрент  

Звёздный мальчик
Страна: СССР
Производство: Мосфильм по заказу Центральной студии Телевидения

Жанр: детский фильм, сказка
Год выпуска: 1957
Продолжительность: 01:11:54

Перевод: Не требуется
Cубтитры: нет
Оригинальная аудиодорожка: русский

Режиссер: Анатолий Дудоров, Евгений Зильберштейн

В ролях:
Мария Виноградова, Сергей Голованов, Елизавета Кузюрина, Нина Гребешкова, Елена Королёва, Владимир Гуськов, Михаил Трояновский, Афанасий Кочетков, Мария Кремнёва, Б. Виноградов, Надежда Румянцева, Нина Крачковская, Татьяна Гурецкая, Алексей Добронравов, Николай Скоробогатов, Эммануил Геллер...
Об актёрах подробней

Описание:
Телефильм по рассказу Оскара Уайльда. На Землю упала звезда. Так появился на нашей планете звездный мальчик. С каждым годом он становился все красивее и красивее.Его золотые волосы колечками спадали вниз, а губы были похожи на лепестки алой розы. Глаза его напоминали фиалки на берегу чистого ручья,а нежные руки точно нарциссы на нетронутой опушке леса. Но красота не сделала его добрым. Совсем наоборот, мальчик рос гордым и жестоким. Даже свою мать, которая долгие годы искала его и поэтому явилась в отрепьях нищенки, он оттолкнул и обидел. Но судьба дала ему шанс исправить ошибки...

Источник: DVB
Качество видео: SATRip
Формат видео: AVI

Видео: 688x512 (4:3), 25 fps, XviD ~ 1309 kbps avg, 0.149 bit/pixel
Аудио: 48 kHz, MP3 2.0, 128 kbps

Раздача от:
Общее
Полное имя : Zvyozdnyy.malchik.1957.SATRip_[New-team]_by_AVP_Studio.avi
Формат : AVI
Формат/Информация : Audio Video Interleave
Размер файла : 744 Мбайт
Продолжительность : 1 ч. 11 м.
Общий поток : 1447 Кбит/сек
Программа кодирования : VirtualDubMod 1.5.10.3 | www.virtualdub-fr.org || (build 2550/release)
Библиотека кодирования : VirtualDubMod build 2550/release

Видео
Идентификатор : 0
Формат : MPEG-4 Visual
Профиль формата : Advanced Simple@L5
Параметр BVOP формата : 1
Параметр QPel формата : Нет
Параметр GMC формата : Без точки перехода
Параметр матрицы формата : Выборочная
Идентификатор кодека : XVID
Идентификатор кодека/Подсказка : XviD
Продолжительность : 1 ч. 11 м.
Битрейт : 1309 Кбит/сек
Ширина : 688 пикселей
Высота : 512 пикселей
Соотношение сторон : 4:3
Частота кадров : 25,000 кадров/сек
Цветовое пространство : YUV
Субдискретизация насыщенности : 4:2:0
Битовая глубина : 8 бит
Тип развёртки : Прогрессивная
Метод сжатия : С потерями
Бит/(Пиксели*Кадры) : 0.149
Размер потока : 673 Мбайт (90%)
Библиотека кодирования : XviD 73

Аудио
Идентификатор : 1
Формат : MPEG Audio
Версия формата : Version 1
Профиль формата : Layer 3
Идентификатор кодека : 55
Идентификатор кодека/Подсказка : MP3
Продолжительность : 1 ч. 11 м.
Вид битрейта : Постоянный
Битрейт : 128 Кбит/сек
Каналы : 2 канала
Частота : 48,0 КГц
Метод сжатия : С потерями
Размер потока : 65,8 Мбайт (9%)
Выравнивание : Соединение по промежуткам
Продолжительность промежутка : 40 мс. (1,00 видеокадр)
Время предзагрузки промежутка : 504 мс.
Библиотека кодирования : LAME3.99r
Настройки программы : -m s -V 4 -q 2 -lowpass 17 -b 128
piratbit.pw



Скачать Звёздный мальчик через торрент http://s018.radikal.ru/i507/1705/46/71d8cb7d1cfb.png Скачать фильм Звёздный мальчик через торрент бесплантно в хорошем качестве Описание:Телефильм по рассказу Оскара Уайльда. На Землю упала звезда. Так появился на нашей планете звездный мальчик. С каждым годом он ... 5 10 1
Info! Золотая раздача, скачанное не засчитывается.
Торрент: Зарегистрирован [2017-05-19 08:03] · скачан: 4 раз
Статус: √ проверено
Размер: 744 MB
Как cкачать? Как скачать Звёздный мальчик через торрент | qTorrent

% Раздел Тема Автор DL S | L
Детские отечественные фильмы [ 1.09 GB ] Звёздный мальчик [1957 CCCР детский фильм сказка SATRip-AVC от AVP Studio] AVP Studio Скачать
1 | 0

28-11-2019 20:33  

Отключить всю рекламу на сайте

    Дорогой пользователь! Огромная просьба, поблагодарите релизера, оцените раздачу и оставьте свои комментарий, если Вы скачали Звёздный мальчик через торрент бесплатно! Внесите свою лепту в развитие PiratBit!
    Комментировать посты могут только пользователи прошедшие не сложную регистрацию
    Показать сообщения:    

    Звёздный мальчик через торрент
    Скачать бесплатно Звёздный мальчик
    Звёздный мальчик скачать торрент
    Звёздный мальчик смотреть онлайн
    Cкачать фильм Звёздный мальчик бесплатно
    Звёздный мальчик скачать торрент в хорошем качестве
    Звёздный мальчик смотреть онлайн бесплатно в хорошем качестве


    Вы не можете начинать темы
    Вы не можете отвечать на сообщения
    Вы не можете редактировать свои сообщения
    Вы не можете удалять свои сообщения
    Вы не можете голосовать в опросах
    Вы не можете прикреплять файлы к сообщениям
    Вы можете скачивать файлы