Marvel's Avengers Deluxe Edition (супер цена) 159р. Внимание количество ограничено!!!

2 сезон

iTunes

iTunes

1

iTunes

iTunes

iTunes

WEBRip

iTunes

30
pack

Новость дня

ВАЖНО

!!Акция!!

Alien_RageХит недели

RePack

Horizon Zero Dawn

ИГРА 18+

pack

RePack

jed

!!Акция!!

Alien_Rage

RePack

fifa19

RePack

Assassins Creed: Odyssey

RePack

NEED FOR SPEED™ PAYBACK

4 сезон

9 сезон

Бесстыжие 9 сезон

Все сериалы

все сериалы на PB.wtf

RePack

FAR CRY 5
  

Фото на недобрую память (Алина Чеботарёва) [2016, мелодрама, криминал, WEB-DLRip 720p] piratbit.pw

Фото на недобрую память через торрент piratbit.pw

Размер: 1.86 GB | Добавлен: 3 года 4 мес. назад | Торрент скачан:81 раз
Скачать  

17-05-2017 08:27 Фото на недобрую память Скачать торрент  

Фото на недобрую память
Год выпуска: 2016
Страна: Россия
Жанр: мелодрама, криминал
Продолжительность: 01:36:55
Субтитры: английские

Режиссер: Алина Чеботарёва



В ролях:

Ирина Таранник, Тимофей Каратаев, Александр Давыдов (V), Виктория Литвиненко-Ясиновская, Валерия Гуляева, Дмитрий Сова, Ольга Радчук, Ирина Мельник, Евгений Лебедин

Описание:

Маша влюблена и мечтает выйти замуж за своего однокурсника Игоря. Только тот не спешит вести девушку под венец. В отчаянии Маша решает «подстегнуть» нерасторопного жениха – подает заявление в ЗАГС с первым встречным. Игорь надеется вернуть любимую, но, кажется, он опоздал. Маша и не ожидала, что отношения, начавшиеся как шутка, вскоре перерастут в настоящее чувство. Судьба улыбается Игорю вновь, когда ненавистный соперник вдруг исчезает перед самой свадьбой. Теперь, кажется, Игорю ничто не мешает начать с Машей новую жизнь. Этим и могла закончиться история, если б не случайный снимок одного незадачливого фотографа. Через несколько лет «недоброй» фотографии суждено перевернуть жизнь героев.

Качество: WEB-DLRip 720p
Формат: MKV
Видео кодек: H.264
Аудио кодек: AC3

Видео: 1280х720 (16:9), 25 fps, AVC MPEG-4 (x264), High@L4 ~ 2569 kbps , 0.112 bit/pixel
Аудио#1: 48 kHz, AC3, 2/0 (L,R) ch, ~192.00 kbps avg
скриншот   скриншот   скриншот  

Общее
Уникальный идентификатор : 230388667728633927292277614046205368744 (0xAD533E4FA2175F0286631690BD2AD9A8)
Полное имя : C:\Фото на недобрую память.2016.720p.mkv
Формат : Matroska
Версия формата : Version 2
Размер файла : 1,86 Гбайт
Продолжительность : 1 ч. 36 м.
Общий поток : 2752 Кбит/сек
Дата кодирования : UTC 2017-05-15 16:47:03
Программа кодирования : mkvmerge v6.1.0 ('Old Devil') built on Mar 4 2013 09:10:42
Библиотека кодирования : libebml v1.3.0 + libmatroska v1.4.0

Видео
Идентификатор : 1
Формат : AVC
Формат/Информация : Advanced Video Codec
Профиль формата : High@L4
Параметр CABAC формата : Да
Параметр ReFrames формата : 4 кадра
Идентификатор кодека : V_MPEG4/ISO/AVC
Продолжительность : 1 ч. 36 м.
Битрейт : 2569 Кбит/сек
Ширина : 1280 пикселей
Высота : 720 пикселей
Соотношение сторон : 16:9
Режим частоты кадров : Постоянный
Частота кадров : 25,000 кадров/сек
Цветовое пространство : YUV
Субдискретизация насыщенности : 4:2:0
Битовая глубина : 8 бит
Тип развёртки : Прогрессивная
Бит/(Пиксели*Кадры) : 0.112
Размер потока : 1,70 Гбайт (91%)
Библиотека кодирования : x264 core 142
Настройки программы : cabac=1 / ref=3 / deblock=1:0:0 / analyse=0x3:0x113 / me=hex / subme=7 / psy=1 / psy_rd=1.00:0.00 / mixed_ref=1 / me_range=16 / chroma_me=1 / trellis=1 / 8x8dct=1 / cqm=0 / deadzone=21,11 / fast_pskip=1 / chroma_qp_offset=-2 / threads=48 / lookahead_threads=5 / sliced_threads=0 / nr=0 / decimate=1 / interlaced=0 / bluray_compat=0 / constrained_intra=0 / bframes=6 / b_pyramid=2 / b_adapt=1 / b_bias=0 / direct=1 / weightb=1 / open_gop=0 / weightp=2 / keyint=200 / keyint_min=20 / scenecut=0 / intra_refresh=0 / rc_lookahead=40 / rc=2pass / mbtree=1 / bitrate=2569 / ratetol=1.0 / qcomp=0.60 / qpmin=0 / qpmax=69 / qpstep=4 / cplxblur=20.0 / qblur=0.5 / vbv_maxrate=3854 / vbv_bufsize=10279 / nal_hrd=none / filler=0 / ip_ratio=1.40 / aq=1:1.00
Язык : English
Default : Да
Forced : Нет

Аудио
Идентификатор : 2
Формат : AC-3
Формат/Информация : Audio Coding 3
Параметр Endianness формата : Big
Идентификатор кодека : A_AC3
Продолжительность : 1 ч. 36 м.
Вид битрейта : Постоянный
Битрейт : 192 Кбит/сек
Каналы : 2 канала
Расположение каналов : Front: L R
Частота : 48,0 КГц
Частота кадров : 31,250 кадров/сек (1536 spf)
Битовая глубина : 16 бит
Метод сжатия : С потерями
Размер потока : 133 Мбайт (7%)
ServiceKind/String : Complete Main
Default : Да
Forced : Нет

piratbit.pw



Скачать Фото на недобрую память через торрент http://s015.radikal.ru/i331/1705/b4/7a7426108033.jpg Скачать фильм Фото на недобрую память через торрент бесплантно в хорошем качестве Описание: Маша влюблена и мечтает выйти замуж за своего однокурсника Игоря. Только тот не спешит вести девушку под венец. В отчаянии Маша ... 10 10 4
Торрент: Зарегистрирован [2017-05-17 08:27] · скачан: 81 раз
Статус: √ проверено
Размер: 1.86 GB
Как cкачать? Как скачать Фото на недобрую память через торрент | qTorrent

% Раздел Тема Автор DL S | L
Наши новые фильмы 2016 [ 746 MB ] Фото на недобрую память [2016 Мело SATRip] Sherif Скачать
1 | 0
Наши новые фильмы 2016 [ 1.37 GB ] Фото на недобрую память [2016 Мело SATRip] smaster Скачать
1 | 0

28-11-2019 20:33  

Отключить всю рекламу на сайте

    Дорогой пользователь! Огромная просьба, поблагодарите релизера, оцените раздачу и оставьте свои комментарий, если Вы скачали Фото на недобрую память через торрент бесплатно! Внесите свою лепту в развитие PiratBit!
    Комментировать посты могут только пользователи прошедшие не сложную регистрацию
    Показать сообщения:    

    Фото на недобрую память через торрент
    Скачать бесплатно Фото на недобрую память
    Фото на недобрую память скачать торрент
    Фото на недобрую память смотреть онлайн
    Cкачать фильм Фото на недобрую память бесплатно
    Фото на недобрую память скачать торрент в хорошем качестве
    Фото на недобрую память смотреть онлайн бесплатно в хорошем качестве


    Вы не можете начинать темы
    Вы не можете отвечать на сообщения
    Вы не можете редактировать свои сообщения
    Вы не можете удалять свои сообщения
    Вы не можете голосовать в опросах
    Вы не можете прикреплять файлы к сообщениям
    Вы можете скачивать файлы