1 сезон

1 сезон

iTunes

1

КиноПоиск HD

Кинопоиск HD

iTunes

13

1 сезон

RePack

30

Новинка

ВАЖНО

ИГРА 18+

pack

RePack

MK11
pack

Легкие деньги

RePack

jed

RePack

fifa19

RePack

RDR2

RePack

NEED FOR SPEED™ PAYBACK

4 сезон

9 сезон

Бесстыжие 9 сезон

Все сериалы

все сериалы на PB.wtf

RePack

FAR CRY 5
  
Magnet ссылка

Логан / Logan (Джеймс Мэнголд) [2017, Фантастика, боевик, триллер, драма, WEB-DLRip-AVC ] AVO [Чадов] - ExKinoRay piratbit.pw

Логан через торрент piratbit.pw

Размер: 2.34 GB | Добавлен: 3 года 11 мес. назад | Торрент скачан:363 раза
Скачать  

16-05-2017 01:21 Логан Скачать торрент  

Информация о фильме
Название: Логан
Оригинальное название: Logan
Год выпуска: 2017
Жанр: Фантастика, боевик, триллер, драма
Выпущено: США / 20th Century Fox Film Corporation, Marvel Entertainment
Продолжительность: 02:17:45
Озвучивание: Авторское (одноголосое) [Чадов]
Субтитры: Английские
Режиссер: Джеймс Мэнголд
В ролях: Хью Джекман, Патрик Стюарт, Дафни Кин, Бойд Холбрук, Стивен Мерчант, Элизабет Родригес, Ричард Э. Грант, Эрик Ла Салль, Элиз Нил, Куинси Фаус

Описание:
В недалеком будущем уставший от жизни Логан заботится о больном профессоре Икс, который прячется неподалеку от мексиканской границы. Но Логан больше не сможет скрывать свое прошлое, когда встретится с юным мутантом, которого преследуют темные силы.


rating

Файл
Качество: WEB-DLRip (AVC)
Формат: MKV
Видео: MPEG-4 AVC, 1024x428 (2.40:1), ~ 1659 kbps avg, 23.976 FPS, 0.158 bit/pixe
Аудио 1: AC-3, 48.0 KHz, 2.0 ch, 192 Kbps, CBR
Аудио 2: AC-3, 48.0 KHz, 2.0 ch, 192 Kbps, CBR (UKR)
Аудио 3: AC-3, 48.0 KHz, 5.1 ch, 384 Kbps, CBR (ENG)

Без какой-либо рекламы
General
Unique ID : 174005755465413113904221387079381917243 (0x82E84A1C5260C343ACFD7D09732B9E3B)
Complete name : D:\Logan.2017.WEB-DLRip.AVC.ExKinoRay.mkv
Format : Matroska
Format version : Version 2
File size : 2.34 GiB
Duration : 2 h 17 min
Overall bit rate : 2 428 kb/s
Movie name : Logan (2017) from ExKinoRay
Encoded date : UTC 2017-05-16 01:09:14
Writing application : mkvmerge v5.8.0 ('No Sleep / Pillow') built on Sep 2 2012 15:37:04
Writing library : libebml v1.2.3 + libmatroska v1.3.0

Video
ID : 1
Format : AVC
Format/Info : Advanced Video Codec
Format profile : High@L4.1
Format settings, CABAC : Yes
Format settings, ReFrames : 10 frames
Codec ID : V_MPEG4/ISO/AVC
Duration : 2 h 17 min
Bit rate : 1 659 kb/s
Width : 1 024 pixels
Height : 428 pixels
Display aspect ratio : 2.40:1
Frame rate mode : Constant
Frame rate : 23.976 (24000/1001) FPS
Color space : YUV
Chroma subsampling : 4:2:0
Bit depth : 8 bits
Scan type : Progressive
Bits/(Pixel*Frame) : 0.158
Stream size : 1.55 GiB (66%)
Title : Enigma
Writing library : x264 core 144 r2525 40bb568
Encoding settings : cabac=1 / ref=10 / deblock=1:-3:-3 / analyse=0x3:0x113 / me=umh / subme=10 / psy=1 / psy_rd=1.05:0.10 / mixed_ref=1 / me_range=32 / chroma_me=1 / trellis=2 / 8x8dct=1 / cqm=0 / deadzone=21,11 / fast_pskip=1 / chroma_qp_offset=-3 / threads=12 / lookahead_threads=2 / sliced_threads=0 / nr=0 / decimate=0 / interlaced=0 / bluray_compat=0 / constrained_intra=0 / bframes=9 / b_pyramid=2 / b_adapt=2 / b_bias=0 / direct=3 / weightb=1 / open_gop=0 / weightp=2 / keyint=240 / keyint_min=23 / scenecut=40 / intra_refresh=0 / rc_lookahead=40 / rc=2pass / mbtree=0 / bitrate=1659 / ratetol=1.0 / qcomp=0.60 / qpmin=0 / qpmax=51 / qpstep=4 / cplxblur=20.0 / qblur=0.5 / vbv_maxrate=50000 / vbv_bufsize=62500 / nal_hrd=none / filler=0 / ip_ratio=1.40 / pb_ratio=1.30 / aq=1:1.00
Default : Yes
Forced : No
Color range : Limited
Color primaries : BT.709
Transfer characteristics : BT.709
Matrix coefficients : BT.709

Audio #1
ID : 2
Format : AC-3
Format/Info : Audio Coding 3
Mode extension : CM (complete main)
Format settings, Endianness : Big
Codec ID : A_AC3
Duration : 2 h 17 min
Bit rate mode : Constant
Bit rate : 192 kb/s
Channel(s) : 2 channels
Channel positions : Front: L R
Sampling rate : 48.0 kHz
Frame rate : 31.250 FPS (1536 spf)
Compression mode : Lossy
Stream size : 189 MiB (8%)
Title : AVO (Chadov)
Language : Russian
Default : Yes
Forced : No

Audio #2
ID : 3
Format : AC-3
Format/Info : Audio Coding 3
Mode extension : CM (complete main)
Format settings, Endianness : Big
Codec ID : A_AC3
Duration : 2 h 17 min
Bit rate mode : Constant
Bit rate : 192 kb/s
Channel(s) : 2 channels
Channel positions : Front: L R
Sampling rate : 48.0 kHz
Frame rate : 31.250 FPS (1536 spf)
Compression mode : Lossy
Stream size : 189 MiB (8%)
Title : Dub
Language : Ukrainian
Default : No
Forced : No

Audio #3
ID : 4
Format : AC-3
Format/Info : Audio Coding 3
Mode extension : CM (complete main)
Format settings, Endianness : Big
Codec ID : A_AC3
Duration : 2 h 17 min
Bit rate mode : Constant
Bit rate : 384 kb/s
Channel(s) : 6 channels
Channel positions : Front: L C R, Side: L R, LFE
Sampling rate : 48.0 kHz
Frame rate : 31.250 FPS (1536 spf)
Compression mode : Lossy
Stream size : 378 MiB (16%)
Title : Original
Language : English
Default : No
Forced : No

Text
ID : 5
Format : UTF-8
Codec ID : S_TEXT/UTF8
Codec ID/Info : UTF-8 Plain Text
Title : Full
Language : English
Default : No
Forced : No

Menu
00:00:00.000 : en:Chapter 01
00:05:33.958 : en:Chapter 02
00:09:17.389 : en:Chapter 03
00:11:39.989 : en:Chapter 04
00:16:22.062 : en:Chapter 05
00:20:10.498 : en:Chapter 06
00:24:25.544 : en:Chapter 07
00:26:10.732 : en:Chapter 08
00:30:12.140 : en:Chapter 09
00:31:57.954 : en:Chapter 10
00:34:55.715 : en:Chapter 11
00:39:52.261 : en:Chapter 12
00:42:54.401 : en:Chapter 13
00:45:02.654 : en:Chapter 14
00:47:52.240 : en:Chapter 15
00:49:38.387 : en:Chapter 16
00:52:13.250 : en:Chapter 17
00:54:29.344 : en:Chapter 18
00:57:43.037 : en:Chapter 19
01:00:09.224 : en:Chapter 20
01:03:52.655 : en:Chapter 21
01:06:54.336 : en:Chapter 22
01:09:53.598 : en:Chapter 23
01:13:14.715 : en:Chapter 24
01:18:42.417 : en:Chapter 25
01:21:49.729 : en:Chapter 26
01:25:51.011 : en:Chapter 27
01:28:37.635 : en:Chapter 28
01:32:40.252 : en:Chapter 29
01:35:28.545 : en:Chapter 30
01:41:02.253 : en:Chapter 31
01:43:38.701 : en:Chapter 32
01:49:37.810 : en:Chapter 33
01:54:19.383 : en:Chapter 34
01:56:59.251 : en:Chapter 35
01:59:19.224 : en:Chapter 36
02:01:13.254 : en:Chapter 37
02:05:08.447 : en:Chapter 38
02:06:39.371 : en:Chapter 39
02:11:06.679 : en:Chapter 40
Релиз от:

Автор релиза: piratbit.pw



Скачать Логан через торрент http://i89.fastpic.ru/big/2017/0413/3a/77ffab74b654430e82bd94e93555623a.jpg Скачать фильм Логан через торрент бесплантно в хорошем качестве Описание: В недалеком будущем уставший от жизни Логан заботится о больном профессоре Икс, который прячется неподалеку от мексиканской ... 8.7 10 6
Info! Золотая раздача, скачанное не засчитывается.
Торрент: Зарегистрирован [2017-05-16 01:21] · скачан: 363 раз
Статус: √ проверено
Размер: 2.34 GB
Как cкачать? Как скачать Логан через торрент | UTorrent

% Раздел Тема Автор DL S | L
Фильмы 2017 [DVDrip, WEB-DLRip, HDrip] (DUB, MVO) [ 2.92 GB ] Логан / Logan [2017 BDRip-AVC] DUB [] - ExKinoRay Enigma2010 Скачать
1 | 0
Фильмы 2017 [DVDrip, WEB-DLRip, HDrip] (DUB, MVO) [ 2.4 GB ] Логан / Logan [2017 BDRip-AVC NOIR Edition] MVO - ExKinoRay Enigma2010 Скачать
2 | 0
Фильмы с авторской озвучкой [ 2.46 GB ] Логан / Logan [2017 BDRip-AVC NOIR Edition] AVO [Чадов] - ExKinoRay Enigma2010 Скачать
1 | 0
Фильмы с авторской озвучкой [ 2.16 GB ] Логан / Logan [2017 DVDRip-AVC] AVO [Чадов] - ExKinoRay Enigma2010 Скачать
1 | 0
Фильмы с авторской озвучкой [ 1.45 GB ] Логан / Logan [2017 DVDRip] AVO [Чадов] - ExKinoRay Enigma2010 Скачать
1 | 0

28-11-2019 20:33  

Отключить всю рекламу на сайте

17-05-2017 12:43 Логан Скачать торрент  

Что за авторское одноголосое говно? Мы что в видео салоне?piratbit.pw



22-05-2017 14:50 Логан Скачать торрент  

Спасибо за Авторский перевод. Но пока еще рано брать его в коллекцию, поскольку как писал сам Михаил у себя на портале
- "Озвучено по дубляжному переводу. Без цензуры. Звук стерео MP3 - 256 кбит/с". Любителям AVO стоит еще немного подождать качества DTS.piratbit.pw



22-05-2017 17:39 Логан Скачать торрент  

Перевод, реально уродский. Смотрел 2 секуды, одно ухо высохло. Слава Богу, что дал мне два уха... Это оскорбление всей вселенной Марвел. Озвучнику, говна в тарелку; раздающему спасибо за труды. Ни кому не советую.piratbit.pw



    Дорогой пользователь! Огромная просьба, поблагодарите релизера, оцените раздачу и оставьте свои комментарий, если Вы скачали Логан через торрент бесплатно! Внесите свою лепту в развитие PiratBit!
    Комментировать посты могут только пользователи прошедшие не сложную регистрацию
    Показать сообщения:    

    Логан через торрент
    Скачать бесплатно Логан
    Логан скачать торрент
    Логан смотреть онлайн
    Cкачать фильм Логан бесплатно
    Логан скачать торрент в хорошем качестве
    Логан смотреть онлайн бесплатно в хорошем качестве


    Вы не можете начинать темы
    Вы не можете отвечать на сообщения
    Вы не можете редактировать свои сообщения
    Вы не можете удалять свои сообщения
    Вы не можете голосовать в опросах
    Вы не можете прикреплять файлы к сообщениям
    Вы можете скачивать файлы