1 сезон

1 сезон

iTunes

1

КиноПоиск HD

Кинопоиск HD

iTunes

13

1 сезон

RePack

30

Ultimate

ВАЖНО

ИГРА 18+

pack

RePack

MK11
pack

Легкие деньги

RePack

jed

RePack

fifa19

RePack

RDR2

RePack

NEED FOR SPEED™ PAYBACK

4 сезон

9 сезон

Бесстыжие 9 сезон

Все сериалы

все сериалы на PB.wtf

RePack

FAR CRY 5
  
Magnet ссылка

Логан / Logan (Джеймс Мэнголд) [2017, фантастика, боевик, триллер, WEB-DL 720p] Авторский одноголосый [Михаил Чадов] piratbit.pw

Логан через торрент piratbit.pw

Размер: 3.13 GB | Добавлен: 3 года 11 мес. назад | Торрент скачан:32 раза
Скачать  

15-05-2017 17:40 Логан Скачать торрент  

Логан / Logan
««Его время пришло»»

Год выпуска: 2017
Страна: США
Жанр: фантастика, боевик, триллер, драма

Продолжительность: 02:17:45
Перевод: Авторский одноголосый [Михаил Чадов] (Присутствует ненормативная лексика)
Субтитры: английские (Full)
Режиссер: Джеймс Мэнголд
В ролях: Хью Джекман (Logan), Патрик Стюарт (Charles), Дафни Кин (Laura), Бойд Холбрук (Pierce), Стивен Мерчант (Caliban), Элизабет Родригес (Gabriela), Ричард Э. Грант (Dr. Rice), Эрик Ла Салль (Will Munson), Элиз Нил (Kathryn Munson), Куинси Фаус (Nate Munson), Аль Коронел (Federale Commander), Фрэнк Гальегос (Federale Lieutenant)
Описание:
В недалеком будущем уставший от жизни Логан заботится о больном профессоре Икс, который прячется неподалеку от мексиканской границы. Но Логан больше не сможет скрывать свое прошлое, когда встретится с юным мутантом, которого преследуют темные силы.
Рейтинг:

MPAA: R - Лицам до 17 лет обязательно присутствие взрослого
Качество: WEB-DL 720p
Формат: MKV
Видео: AVC, 1280x536 (2.40:1), 2677 kbps, 24 fps, 0,163 bpp
Аудио №1: русский / AC3 / 2.0 / 48 kHz / 192 kbps / |AVO, M. Чадов|
Аудио №2: английский / AC3 / 5.1 / 48 kHz / 384 kbps /
Навигация по главам: есть
Релиз от:
General
Unique ID : 174179639268871581186933063030091463710 (0x8309C73E79B296868A472551246EBC1E)
Complete name : F:VideoLogan.2017.WEB-DL.720p.ExKinoRay.mkv
Format : Matroska
Format version : Version 4 / Version 2
File size : 3.13 GiB
Duration : 2 h 17 min
Overall bit rate mode : Variable
Overall bit rate : 3 253 kb/s
Encoded date : UTC 2017-05-15 17:08:06
Writing application : mkvmerge v11.0.0 ('Alive') 64bit
Writing library : libebml v1.3.4 + libmatroska v1.4.5

Video
ID : 1
Format : AVC
Format/Info : Advanced Video Codec
Format profile : High@L4.1
Format settings, CABAC : Yes
Format settings, ReFrames : 4 frames
Codec ID : V_MPEG4/ISO/AVC
Duration : 2 h 17 min
Bit rate mode : Variable
Bit rate : 2 677 kb/s
Maximum bit rate : 40.0 Mb/s
Width : 1 280 pixels
Height : 536 pixels
Display aspect ratio : 2.40:1
Frame rate mode : Constant
Frame rate : 24.000 FPS
Color space : YUV
Chroma subsampling : 4:2:0
Bit depth : 8 bits
Scan type : Progressive
Bits/(Pixel*Frame) : 0.163
Stream size : 2.58 GiB (82%)
Language : English
Default : Yes
Forced : No
Color range : Limited
Color primaries : BT.709
Transfer characteristics : BT.709
Matrix coefficients : BT.709

Audio #1
ID : 2
Format : AC-3
Format/Info : Audio Coding 3
Format settings, Endianness : Big
Codec ID : A_AC3
Duration : 2 h 17 min
Bit rate mode : Constant
Bit rate : 192 kb/s
Channel(s) : 2 channels
Channel positions : Front: L R
Sampling rate : 48.0 kHz
Frame rate : 31.250 FPS (1536 spf)
Bit depth : 16 bits
Compression mode : Lossy
Stream size : 189 MiB (6%)
Title : AVO
Language : Russian
Service kind : Complete Main
Default : Yes
Forced : No

Audio #2
ID : 3
Format : AC-3
Format/Info : Audio Coding 3
Format settings, Endianness : Big
Codec ID : A_AC3
Duration : 2 h 17 min
Bit rate mode : Constant
Bit rate : 384 kb/s
Channel(s) : 6 channels
Channel positions : Front: L C R, Side: L R, LFE
Sampling rate : 48.0 kHz
Frame rate : 31.250 FPS (1536 spf)
Bit depth : 16 bits
Compression mode : Lossy
Stream size : 377 MiB (12%)
Title : Original
Language : English
Service kind : Complete Main
Default : No
Forced : No

Text
ID : 4
Format : UTF-8
Codec ID : S_TEXT/UTF8
Codec ID/Info : UTF-8 Plain Text
Duration : 2 h 16 min
Bit rate : 39 b/s
Count of elements : 1468
Stream size : 39.8 KiB (0%)
Title : Full
Language : English
Default : No
Forced : No

Menu
00:00:00.000 : en:Chapter 01
00:05:33.958 : en:Chapter 02
00:09:17.389 : en:Chapter 03
00:11:39.989 : en:Chapter 04
00:16:22.062 : en:Chapter 05
00:20:10.498 : en:Chapter 06
00:24:25.544 : en:Chapter 07
00:26:10.732 : en:Chapter 08
00:30:12.140 : en:Chapter 09
00:31:57.954 : en:Chapter 10
00:34:55.715 : en:Chapter 11
00:39:52.261 : en:Chapter 12
00:42:54.401 : en:Chapter 13
00:45:02.654 : en:Chapter 14
00:47:52.240 : en:Chapter 15
00:49:38.387 : en:Chapter 16
00:52:13.250 : en:Chapter 17
00:54:29.344 : en:Chapter 18
00:57:43.037 : en:Chapter 19
01:00:09.224 : en:Chapter 20
01:03:52.655 : en:Chapter 21
01:06:54.336 : en:Chapter 22
01:09:53.598 : en:Chapter 23
01:13:14.715 : en:Chapter 24
01:18:42.417 : en:Chapter 25
01:21:49.729 : en:Chapter 26
01:25:51.011 : en:Chapter 27
01:28:37.635 : en:Chapter 28
01:32:40.252 : en:Chapter 29
01:35:28.545 : en:Chapter 30
01:41:02.253 : en:Chapter 31
01:43:38.701 : en:Chapter 32
01:49:37.810 : en:Chapter 33
01:54:19.383 : en:Chapter 34
01:56:59.251 : en:Chapter 35
01:59:19.224 : en:Chapter 36
02:01:13.254 : en:Chapter 37
02:05:08.447 : en:Chapter 38
02:06:39.371 : en:Chapter 39
02:11:06.679 : en:Chapter 40
piratbit.pw



Скачать Логан через торрент http://i6.imageban.ru/out/2017/05/15/4f8a48b6c4b0e4af1462b6ac45494060.jpg Скачать фильм Логан через торрент бесплантно в хорошем качестве Описание: В недалеком будущем уставший от жизни Логан заботится о больном профессоре Икс, который прячется неподалеку от мексиканской ... 10 10 1
Торрент: Зарегистрирован [2017-05-15 17:40] · скачан: 32 раз
Статус: √ проверено
Размер: 3.13 GB
Как cкачать? Как скачать Логан через торрент | UTorrent

% Раздел Тема Автор DL S | L
Фильмы (HD 720p, 1080p) (48-60 fps) [ 4.5 GB ] Логан / Logan [2017 BDRip 720p / 60 FPS ] от R.G. HD-Films slaventi-69 Скачать
2 | 0
Фильмы 2017 [DVDrip, WEB-DLRip, HDrip] (DUB, MVO) [ 2.18 GB ] Удача Логана / Logan Lucky [2017 BDRip] [Rus Transfer] DUB [ BD RUS] bober100 Скачать
2 | 0
Фильмы 2017 [DVDrip, WEB-DLRip, HDrip] (DUB, MVO) [ 2.09 GB ] Удача Логана / Logan Lucky [2017 BDRip-AVC] DUB [] bober100 Скачать
2 | 0
Фильмы 2017 [DVDrip, WEB-DLRip, HDrip] (DUB, MVO) [ 746 MB ] Удача Логана / Logan Lucky [2017 BDRip] DUB [ BD RUS] bober100 Скачать
1 | 0
Фильмы 2017 [DVDrip, WEB-DLRip, HDrip] (DUB, MVO) [ 1.46 GB ] Удача Логана / Logan Lucky [2017 BDRip] [Rus Transfer] DUB [ BD RUS] bober100 Скачать
1 | 0
Ultra HD (UHD: 2K, 4K, 8K) — видео сверхвысокой чёткости [ 55.08 GB ] Логан / Logan [2017 UHD Blu-ray 2160p] DUB + 2xAVO sheker187 Скачать
1 | 0
Классика зарубежного кино [ 6.43 GB ] Бегство Логана / Logan's run [1976 BDRip 720p от KORSAR][MVO] Cthulhu Скачать
1 | 0

28-11-2019 20:33  

Отключить всю рекламу на сайте

    Дорогой пользователь! Огромная просьба, поблагодарите релизера, оцените раздачу и оставьте свои комментарий, если Вы скачали Логан через торрент бесплатно! Внесите свою лепту в развитие PiratBit!
    Комментировать посты могут только пользователи прошедшие не сложную регистрацию
    Показать сообщения:    

    Логан через торрент
    Скачать бесплатно Логан
    Логан скачать торрент
    Логан смотреть онлайн
    Cкачать фильм Логан бесплатно
    Логан скачать торрент в хорошем качестве
    Логан смотреть онлайн бесплатно в хорошем качестве


    Вы не можете начинать темы
    Вы не можете отвечать на сообщения
    Вы не можете редактировать свои сообщения
    Вы не можете удалять свои сообщения
    Вы не можете голосовать в опросах
    Вы не можете прикреплять файлы к сообщениям
    Вы можете скачивать файлы