1 сезон

1 сезон

iTunes

1

КиноПоиск HD

Кинопоиск HD

iTunes

13

1 сезон

RePack

30

Ultimate

ВАЖНО

ИГРА 18+

pack

RePack

MK11
pack

Легкие деньги

RePack

jed

RePack

fifa19

RePack

RDR2

RePack

NEED FOR SPEED™ PAYBACK

4 сезон

9 сезон

Бесстыжие 9 сезон

Все сериалы

все сериалы на PB.wtf

RePack

FAR CRY 5
  
Magnet ссылка

Логан / Logan (Джеймс Мэнголд) [2017, Фантастика, боевик, триллер, драма, DVDRip-AVC] AVO [Чадов] - ExKinoRay piratbit.pw

Логан через торрент piratbit.pw

Размер: 2.16 GB | Добавлен: 3 года 11 мес. назад | Торрент скачан:152 раза
Скачать  

12-05-2017 03:42 Логан Скачать торрент  

Информация о фильме
Название: Логан
Оригинальное название: Logan
Год выпуска: 2017
Жанр: Фантастика, боевик, триллер, драма
Выпущено: США / 20th Century Fox Film Corporation, Marvel Entertainment
Продолжительность: 02:17:22
Озвучивание: Авторское (одноголосое) [Чадов]
Субтитры: Английские
Режиссер: Джеймс Мэнголд
В ролях: Хью Джекман, Патрик Стюарт, Дафни Кин, Бойд Холбрук, Стивен Мерчант, Элизабет Родригес, Ричард Э. Грант, Эрик Ла Салль, Элиз Нил, Куинси Фаус

Описание:
В недалеком будущем уставший от жизни Логан заботится о больном профессоре Икс, который прячется неподалеку от мексиканской границы. Но Логан больше не сможет скрывать свое прошлое, когда встретится с юным мутантом, которого преследуют темные силы.


rating

Файл
Качество: DVDRip (AVC)
Формат: MKV
Видео: MPEG-4 AVC, 720x302 (2.40:1), ~ 1807 kbps avg, 23.976 FPS, 0.347 bit/pixe
Аудио 1: AC-3, 48.0 KHz, 2.0 ch, 192 Kbps, CBR
Аудио 2: AC-3, 48.0 KHz, 5.1 ch, 256 Kbps, CBR (Russian)

Без какой-либо рекламы
General
Unique ID : 213541195699291952496971002867224222240 (0xA0A689CF0FA646B3BAD4F42B00891A20)
Complete name : D:\Logan.2017.AVO.Chadov.DVDRip.AVC.ExKinoRay.mkv
Format : Matroska
Format version : Version 2
File size : 2.16 GiB
Duration : 2 h 17 min
Overall bit rate : 2 256 kb/s
Movie name : Logan (2017) from ExKinoRay
Encoded date : UTC 2017-05-12 02:06:10
Writing application : mkvmerge v5.8.0 ('No Sleep / Pillow') built on Sep 2 2012 15:37:04
Writing library : libebml v1.2.3 + libmatroska v1.3.0

Video
ID : 1
Format : AVC
Format/Info : Advanced Video Codec
Format profile : High@L4.1
Format settings, CABAC : Yes
Format settings, ReFrames : 10 frames
Codec ID : V_MPEG4/ISO/AVC
Duration : 2 h 17 min
Bit rate : 1 807 kb/s
Width : 720 pixels
Height : 302 pixels
Display aspect ratio : 2.40:1
Frame rate mode : Constant
Frame rate : 23.976 (24000/1001) FPS
Color space : YUV
Chroma subsampling : 4:2:0
Bit depth : 8 bits
Scan type : Progressive
Bits/(Pixel*Frame) : 0.347
Stream size : 1.69 GiB (78%)
Title : Enigma
Writing library : x264 core 144 r2525 40bb568
Encoding settings : cabac=1 / ref=10 / deblock=1:-3:-3 / analyse=0x3:0x113 / me=umh / subme=10 / psy=1 / psy_rd=1.05:0.10 / mixed_ref=1 / me_range=32 / chroma_me=1 / trellis=2 / 8x8dct=1 / cqm=0 / deadzone=21,11 / fast_pskip=1 / chroma_qp_offset=-3 / threads=12 / lookahead_threads=2 / sliced_threads=0 / nr=0 / decimate=0 / interlaced=0 / bluray_compat=0 / constrained_intra=0 / bframes=10 / b_pyramid=2 / b_adapt=2 / b_bias=0 / direct=3 / weightb=1 / open_gop=0 / weightp=2 / keyint=240 / keyint_min=23 / scenecut=40 / intra_refresh=0 / rc=2pass / mbtree=0 / bitrate=1807 / ratetol=1.0 / qcomp=0.60 / qpmin=0 / qpmax=51 / qpstep=4 / cplxblur=20.0 / qblur=0.5 / ip_ratio=1.40 / pb_ratio=1.30 / aq=1:1.00
Default : Yes
Forced : No

Audio #1
ID : 2
Format : AC-3
Format/Info : Audio Coding 3
Mode extension : CM (complete main)
Format settings, Endianness : Big
Codec ID : A_AC3
Duration : 2 h 17 min
Bit rate mode : Constant
Bit rate : 192 kb/s
Channel(s) : 2 channels
Channel positions : Front: L R
Sampling rate : 48.0 kHz
Frame rate : 31.250 FPS (1536 spf)
Compression mode : Lossy
Stream size : 189 MiB (9%)
Title : AVO (Chadov)
Language : Russian
Default : Yes
Forced : No

Audio #2
ID : 3
Format : AC-3
Format/Info : Audio Coding 3
Mode extension : CM (complete main)
Format settings, Endianness : Big
Codec ID : A_AC3
Duration : 2 h 17 min
Bit rate mode : Constant
Bit rate : 256 kb/s
Channel(s) : 6 channels
Channel positions : Front: L C R, Side: L R, LFE
Sampling rate : 48.0 kHz
Frame rate : 31.250 FPS (1536 spf)
Compression mode : Lossy
Stream size : 252 MiB (11%)
Language : English
Default : No
Forced : No

Text
ID : 4
Format : UTF-8
Codec ID : S_TEXT/UTF8
Codec ID/Info : UTF-8 Plain Text
Language : English
Default : No
Forced : No
Релиз от:

Автор релиза: piratbit.pw



Скачать Логан через торрент http://i89.fastpic.ru/big/2017/0413/3a/77ffab74b654430e82bd94e93555623a.jpg Скачать фильм Логан через торрент бесплантно в хорошем качестве Описание: В недалеком будущем уставший от жизни Логан заботится о больном профессоре Икс, который прячется неподалеку от мексиканской ... 8.2 10 5
Info! Золотая раздача, скачанное не засчитывается.
Торрент: Зарегистрирован [2017-05-12 03:42] · скачан: 152 раз
Статус: √ проверено
Размер: 2.16 GB
Как cкачать? Как скачать Логан через торрент | UTorrent

% Раздел Тема Автор DL S | L
Фильмы 2017 [DVDrip, WEB-DLRip, HDrip] (DUB, MVO) [ 2.92 GB ] Логан / Logan [2017 BDRip-AVC] DUB [] - ExKinoRay Enigma2010 Скачать
1 | 0
Фильмы 2017 [DVDrip, WEB-DLRip, HDrip] (DUB, MVO) [ 2.4 GB ] Логан / Logan [2017 BDRip-AVC NOIR Edition] MVO - ExKinoRay Enigma2010 Скачать
2 | 0
Фильмы с авторской озвучкой [ 2.46 GB ] Логан / Logan [2017 BDRip-AVC NOIR Edition] AVO [Чадов] - ExKinoRay Enigma2010 Скачать
1 | 0
Фильмы с авторской озвучкой [ 2.34 GB ] Логан / Logan [2017 WEB-DLRip-AVC ] AVO [Чадов] - ExKinoRay Enigma2010 Скачать
1 | 0
Фильмы с авторской озвучкой [ 1.45 GB ] Логан / Logan [2017 DVDRip] AVO [Чадов] - ExKinoRay Enigma2010 Скачать
1 | 0

28-11-2019 20:33  

Отключить всю рекламу на сайте

    Дорогой пользователь! Огромная просьба, поблагодарите релизера, оцените раздачу и оставьте свои комментарий, если Вы скачали Логан через торрент бесплатно! Внесите свою лепту в развитие PiratBit!
    Комментировать посты могут только пользователи прошедшие не сложную регистрацию
    Показать сообщения:    

    Логан через торрент
    Скачать бесплатно Логан
    Логан скачать торрент
    Логан смотреть онлайн
    Cкачать фильм Логан бесплатно
    Логан скачать торрент в хорошем качестве
    Логан смотреть онлайн бесплатно в хорошем качестве


    Вы не можете начинать темы
    Вы не можете отвечать на сообщения
    Вы не можете редактировать свои сообщения
    Вы не можете удалять свои сообщения
    Вы не можете голосовать в опросах
    Вы не можете прикреплять файлы к сообщениям
    Вы можете скачивать файлы