1 сезон

1 сезон

iTunes

1

КиноПоиск HD

Кинопоиск HD

iTunes

13

1 сезон

RePack

30

Новинка

ВАЖНО

ИГРА 18+

pack

RePack

MK11
pack

Легкие деньги

RePack

jed

RePack

fifa19

RePack

RDR2

RePack

NEED FOR SPEED™ PAYBACK

4 сезон

9 сезон

Бесстыжие 9 сезон

Все сериалы

все сериалы на PB.wtf

RePack

FAR CRY 5
  
Magnet ссылка

Зловещие мертвецы: Черная книга / Evil Dead (Федерико Альварес ) [2013, ужасы, BDRip 720p от potroks] [Unrated] AVO piratbit.pw

Зловещие мертвецы: Черная книга через торрент piratbit.pw

Размер: 3.94 GB | Добавлен: 3 года 11 мес. назад | Торрент скачан:54 раза
Скачать  

07-05-2017 03:41 Зловещие мертвецы: Черная книга Скачать торрент  

Зловещие мертвецы: Черная книга / Evil Dead

Год выпуска: 2013
Страна: США / FilmDistrict, Ghost House Pictures, TriStar Pictures
Жанр: ужасы
Продолжительность: 01:36:26
Перевод: Авторский одноголосый [Матвеев Алексей]
Субтитры: русские (Blu-ray CEE), русские (А.Матвеев (uncensored)), английские (Full), английские (SDH)
Навигация по главам: есть
Режиссер: Федерико Альварес / Federico Alvarez
В ролях:

Джейн Леви (Mia), Шайло Фернандес (David), Лу Тэйлор Пуччи (Eric), Джессика Лукас (Olivia), Элизабет Блэкмор (Natalie), Феникс Коннолли (Teenager), Джим МакЛарти (Harold), Сиан Дэвис (Old Woman), Стефен Баттерворф (Toothless Redneck), Карл Виллетц (Long Haired Redneck), Рендал Уилсон (Abomination Mia), Руперт Дегас (Demon, озвучка)
Описание: Молодая женщина Миа, пытающаяся избавиться от наркозависимости, отправляется вместе с братом и группой друзей в удалённую хижину, где они открывают Книгу мёртвых, что приводит к опасности и ужасу.

Качество: BDRip 720p
Формат: MKV
Видео: AVC, 1280x536 (2.40:1), 4570 kbps, 23,976 fps, 0,278 bpp
Аудио №1: AC3 / 5.1 / 48 kHz / 640 kbps / 16 bit | RUS
Аудио №2: AC3 / 5.1 / 48 kHz / 640 kbps / 16 bit | ENG
General
Unique ID : 177964852926304314284836285251445114539 (0x85E2C8AFA1A9E1E5B093BAD58278C6AB)
Complete name : D:\Zloveschiye.Mertvetcy.Chernaya.Kniga.2013.UC.BDRip.720p.-HELLYWOOD.mkv
Format : Matroska
Format version : Version 4 / Version 2
File size : 3.94 GiB
Duration : 1 h 36 min
Overall bit rate : 5 852 kb/s
Movie name : Evil Dead (2013) [UNRATED]
Encoded date : UTC 2017-05-07 03:01:04
Writing application : mkvmerge v5.9.0 ('On The Loose') built on Dec 15 2012 16:39:58
Writing library : libebml v1.3.0 + libmatroska v1.4.0

Video
ID : 1
Format : AVC
Format/Info : Advanced Video Codec
Format profile : High@L4.1
Format settings, CABAC : Yes
Format settings, ReFrames : 9 frames
Codec ID : V_MPEG4/ISO/AVC
Duration : 1 h 36 min
Bit rate : 4 570 kb/s
Width : 1 280 pixels
Height : 536 pixels
Display aspect ratio : 2.40:1
Frame rate mode : Constant
Frame rate : 23.976 FPS
Color space : YUV
Chroma subsampling : 4:2:0
Bit depth : 8 bits
Scan type : Progressive
Bits/(Pixel*Frame) : 0.278
Stream size : 3.00 GiB (76%)
Title : potroks
Writing library : x264 core 146 r2538 121396c
Encoding settings : cabac=1 / ref=9 / deblock=1:-3:-3 / analyse=0x3:0x113 / me=umh / subme=11 / psy=1 / psy_rd=1.01:0.05 / mixed_ref=1 / me_range=56 / chroma_me=1 / trellis=2 / 8x8dct=1 / cqm=0 / deadzone=21,11 / fast_pskip=0 / chroma_qp_offset=-3 / threads=9 / lookahead_threads=2 / sliced_threads=0 / nr=0 / decimate=0 / interlaced=0 / bluray_compat=0 / constrained_intra=0 / bframes=10 / b_pyramid=2 / b_adapt=2 / b_bias=0 / direct=3 / weightb=1 / open_gop=0 / weightp=2 / keyint=240 / keyint_min=23 / scenecut=40 / intra_refresh=0 / rc_lookahead=60 / rc=2pass / mbtree=0 / bitrate=4570 / ratetol=1.0 / qcomp=0.70 / qpmin=0 / qpmax=69 / qpstep=4 / cplxblur=20.0 / qblur=0.5 / vbv_maxrate=14000 / vbv_bufsize=14000 / nal_hrd=none / filler=0 / ip_ratio=1.40 / pb_ratio=1.30 / aq=1:0.80
Language : English
Default : Yes
Forced : No

Audio #1
ID : 2
Format : AC-3
Format/Info : Audio Coding 3
Mode extension : CM (complete main)
Format settings, Endianness : Big
Codec ID : A_AC3
Duration : 1 h 36 min
Bit rate mode : Constant
Bit rate : 640 kb/s
Channel(s) : 6 channels
Channel positions : Front: L C R, Side: L R, LFE
Sampling rate : 48.0 kHz
Frame rate : 31.250 FPS (1536 spf)
Compression mode : Lossy
Stream size : 441 MiB (11%)
Title : AVO | DD 5.1 @ 640 kbps - A.Matveev
Language : Russian
Default : Yes
Forced : No

Audio #2
ID : 3
Format : AC-3
Format/Info : Audio Coding 3
Mode extension : CM (complete main)
Format settings, Endianness : Big
Codec ID : A_AC3
Duration : 1 h 36 min
Bit rate mode : Constant
Bit rate : 640 kb/s
Channel(s) : 6 channels
Channel positions : Front: L C R, Side: L R, LFE
Sampling rate : 48.0 kHz
Frame rate : 31.250 FPS (1536 spf)
Compression mode : Lossy
Stream size : 441 MiB (11%)
Title : Original | DD 5.1 @ 640 kbps
Language : English
Default : No
Forced : No

Text #1
ID : 4
Format : UTF-8
Codec ID : S_TEXT/UTF8
Codec ID/Info : UTF-8 Plain Text
Title : Blu-ray
Language : Russian
Default : No
Forced : No

Text #2
ID : 5
Format : UTF-8
Codec ID : S_TEXT/UTF8
Codec ID/Info : UTF-8 Plain Text
Title : A.Matveev [uncensored]
Language : Russian
Default : No
Forced : No

Text #3
ID : 6
Format : UTF-8
Codec ID : S_TEXT/UTF8
Codec ID/Info : UTF-8 Plain Text
Title : Full
Language : English
Default : No
Forced : No

Text #4
ID : 7
Format : UTF-8
Codec ID : S_TEXT/UTF8
Codec ID/Info : UTF-8 Plain Text
Title : SDH
Language : English
Default : No
Forced : No

Menu
00:00:00.000 : en:(01)00:00:00:000
00:05:11.102 : en:(02)00:05:11:102
00:10:23.289 : en:(03)00:10:23:289
00:15:25.215 : en:(04)00:15:25:215
00:19:35.257 : en:(05)00:19:35:257
00:24:18.957 : en:(06)00:24:18:957
00:31:42.734 : en:(07)00:31:42:734
00:36:39.614 : en:(08)00:36:39:614
00:41:41.332 : en:(09)00:41:41:332
00:51:21.620 : en:(10)00:51:21:620
00:57:20.103 : en:(11)00:57:20:103
01:03:46.864 : en:(12)01:03:46:864
01:11:44.133 : en:(13)01:11:44:133
01:17:23.555 : en:(14)01:17:23:555
01:21:07.028 : en:(15)01:21:07:028
01:24:23.975 : en:(16)01:24:23:975
piratbit.pw



Скачать Зловещие мертвецы: Черная книга через торрент http://i91.fastpic.ru/big/2017/0507/35/3e66646a0cd6b78f9985f645b8dbb935.png Скачать фильм Зловещие мертвецы: Черная книга через торрент бесплантно в хорошем качестве Описание: Молодая женщина Миа, пытающаяся избавиться от наркозависимости, отправляется вместе с братом и группой друзей в удалённую ... 10 10 5
Info! Золотая раздача, скачанное не засчитывается.
Торрент: Зарегистрирован [2017-05-07 03:41] · скачан: 54 раз
Статус: √ проверено
Размер: 3.94 GB
Как cкачать? Как скачать Зловещие мертвецы: Черная книга через торрент | UTorrent

% Раздел Тема Автор DL S | L
Фильмы (Blu-ray, BD-Remux, HDDVD) [ 24.09 GB ] Зловещие мертвецы: Черная книга / Evil Dead [2013 ремейк BD Remux 1080p] [] DUB+2xAVO+MVO bober100 Скачать
1 | 0
Фильмы 2013 [DVDrip, WEB-DLRip, HDrip] [ 2.32 GB ] Зловещие мертвецы: Черная книга / Evil Dead [ 2013 BDRip ] Dub + AVO + VO + Original + Subs читерас Скачать
1 | 0
Фильмы (Blu-ray, BD-Remux, HDDVD) [ 22.74 GB ] Зловещие мертвецы: Черная книга / Evil Dead [2013 BDRemux + Оригинал+VO+AVO] Ворон Скачать
1 | 0
Фильмы 2013 (Звук TS, Cam, VO, DVO) [ 1.45 GB ] Зловещие мертвецы: Черная книга / Evil Dead [2013 HDRip] AVO Ворон Скачать
1 | 0

28-11-2019 20:33  

Отключить всю рекламу на сайте

    Дорогой пользователь! Огромная просьба, поблагодарите релизера, оцените раздачу и оставьте свои комментарий, если Вы скачали Зловещие мертвецы: Черная книга через торрент бесплатно! Внесите свою лепту в развитие PiratBit!
    Комментировать посты могут только пользователи прошедшие не сложную регистрацию
    Показать сообщения:    

    Зловещие мертвецы: Черная книга через торрент
    Скачать бесплатно Зловещие мертвецы: Черная книга
    Зловещие мертвецы: Черная книга скачать торрент
    Зловещие мертвецы: Черная книга смотреть онлайн
    Cкачать фильм Зловещие мертвецы: Черная книга бесплатно
    Зловещие мертвецы: Черная книга скачать торрент в хорошем качестве
    Зловещие мертвецы: Черная книга смотреть онлайн бесплатно в хорошем качестве


    Вы не можете начинать темы
    Вы не можете отвечать на сообщения
    Вы не можете редактировать свои сообщения
    Вы не можете удалять свои сообщения
    Вы не можете голосовать в опросах
    Вы не можете прикреплять файлы к сообщениям
    Вы можете скачивать файлы