1 сезон

1 сезон

iTunes

1

КиноПоиск HD

Кинопоиск HD

iTunes

13

1 сезон

RePack

30

Новинка

ВАЖНО

ИГРА 18+

pack

RePack

MK11
pack

Легкие деньги

RePack

jed

RePack

fifa19

RePack

RDR2

RePack

NEED FOR SPEED™ PAYBACK

4 сезон

9 сезон

Бесстыжие 9 сезон

Все сериалы

все сериалы на PB.wtf

RePack

FAR CRY 5
  
Magnet ссылка

Попавшиеся / Trapped (Уильям Фрюит) [1982, триллер, BDRip 720p by msltel] AVO piratbit.pw

Попавшиеся через торрент piratbit.pw

Размер: 4.5 GB | Добавлен: 3 года 11 мес. назад | Торрент скачан:4 раза
Скачать  

02-05-2017 09:52 Попавшиеся Скачать торрент  

Название: Попавшиеся
Оригинальное название: Trapped
Год выпуска: 1982
Страна: США, Канада
Жанр: триллер
Продолжительность: 01:35:46
Перевод: авторский

Режиссёр: Уильям Фрюит

В ролях: Генри Сильва, Николас Кэмпбелл, Барбара Гордон, Джина Дик, Джой Томпсон, Аллан Ройал, Сэм Малкин, Стюарт Кулпеппер, Джон Раттер

Описание: Четверо студентов едут пошататься по горам, где некстати наблюдают расправу, устроенную местными жителями-отщепенцами над каким-то бедолагой. Узнав об этом, лидер горного посёлка решает устранить случайных свидетелей...



Качество: BDRip 720p
Формат: MKV
Видео: MPEG-4 AVC, 6339 Кбит/с, 1280x720, 23,976 кадра/с
Аудио 1: русский, AC3, 192 kbps, 2 ch, 48 kHz [авторский, Андрей Дольский]
Аудио 2: английский, AC3, 192 kbps, 2 ch, 48 kHz [оригинал]
Имеются неименованные главы/чаптеры.
Общее
Уникальный идентификатор : 215834133620765797885769006879567301896 (0xA2602460692513E2B4836919C044CD08)
Полное имя : D:\Video\Попавшиеся.1982.BDRip.720p by msltel.mkv
Формат : Matroska
Версия формата : Version 4 / Version 2
Размер файла : 4,50 Гбайт
Продолжительность : 1 ч. 35 м.
Общий поток : 6725 Кбит/сек
Название фильма : Rip by msltel
Дата кодирования : UTC 2017-05-02 08:50:19
Программа кодирования : mkvmerge v8.2.0 ('World of Adventure') 64bit
Библиотека кодирования : libebml v1.3.1 + libmatroska v1.4.2

Видео
Идентификатор : 1
Формат : AVC
Формат/Информация : Advanced Video Codec
Профиль формата : High@L4.1
Параметр CABAC формата : Да
Параметр ReFrames формата : 9 кадров
Идентификатор кодека : V_MPEG4/ISO/AVC
Продолжительность : 1 ч. 35 м.
Битрейт : 6339 Кбит/сек
Ширина : 1280 пикселей
Высота : 720 пикселей
Соотношение сторон : 16:9
Режим частоты кадров : Постоянный
Частота кадров : 23,976 (24000/1001) кадра/сек
Цветовое пространство : YUV
Субдискретизация насыщенности : 4:2:0
Битовая глубина : 8 бит
Тип развёртки : Прогрессивная
Бит/(Пиксели*Кадры) : 0.287
Размер потока : 4,24 Гбайт (94%)
Библиотека кодирования : x264 core 146 r2538 121396c
Настройки программы : cabac=1 / ref=9 / deblock=1:-3:-2 / analyse=0x3:0x113 / me=umh / subme=11 / psy=1 / psy_rd=1.00:0.15 / mixed_ref=1 / me_range=32 / chroma_me=1 / trellis=2 / 8x8dct=1 / cqm=0 / deadzone=21,11 / fast_pskip=0 / chroma_qp_offset=-3 / threads=6 / lookahead_threads=1 / sliced_threads=0 / nr=0 / decimate=1 / interlaced=0 / bluray_compat=0 / constrained_intra=0 / bframes=12 / b_pyramid=2 / b_adapt=2 / b_bias=0 / direct=1 / weightb=1 / open_gop=0 / weightp=2 / keyint=230 / keyint_min=23 / scenecut=40 / intra_refresh=0 / rc_lookahead=40 / rc=crf / mbtree=0 / crf=19.0 / qcomp=0.60 / qpmin=0 / qpmax=69 / qpstep=4 / vbv_maxrate=62500 / vbv_bufsize=78125 / crf_max=0.0 / nal_hrd=none / filler=0 / ip_ratio=1.40 / pb_ratio=1.30 / aq=1:1.00
Язык : English
Default : Да
Forced : Нет

Аудио #1
Идентификатор : 2
Формат : AC-3
Формат/Информация : Audio Coding 3
Параметр Endianness формата : Big
Идентификатор кодека : A_AC3
Продолжительность : 1 ч. 35 м.
Вид битрейта : Постоянный
Битрейт : 192 Кбит/сек
Каналы : 2 канала
Расположение каналов : Front: L R
Частота : 48,0 КГц
Частота кадров : 31,250 кадров/сек (1536 spf)
Битовая глубина : 16 бит
Метод сжатия : С потерями
Размер потока : 131 Мбайт (3%)
Заголовок : AVO (Андрей Дольский)
Язык : Russian
ServiceKind/String : Complete Main
Default : Да
Forced : Нет

Аудио #2
Идентификатор : 3
Формат : AC-3
Формат/Информация : Audio Coding 3
Параметр Endianness формата : Big
Идентификатор кодека : A_AC3
Продолжительность : 1 ч. 35 м.
Вид битрейта : Постоянный
Битрейт : 192 Кбит/сек
Каналы : 2 канала
Расположение каналов : Front: L R
Частота : 48,0 КГц
Частота кадров : 31,250 кадров/сек (1536 spf)
Битовая глубина : 16 бит
Метод сжатия : С потерями
Размер потока : 132 Мбайт (3%)
Заголовок : original
Язык : English
ServiceKind/String : Complete Main
Default : Нет
Forced : Нет

Меню
00:00:00.000 : :Chapter 01
00:03:35.548 : :Chapter 02
00:11:22.181 : :Chapter 03
00:16:04.712 : :Chapter 04
00:21:58.650 : :Chapter 05
00:32:52.386 : :Chapter 06
00:39:29.909 : :Chapter 07
00:43:49.876 : :Chapter 08
00:48:22.148 : :Chapter 09
00:54:38.942 : :Chapter 10
01:00:04.641 : :Chapter 11
01:06:15.179 : :Chapter 12
01:10:53.457 : :Chapter 13
01:18:47.305 : :Chapter 14
01:24:51.336 : :Chapter 15
01:34:25.826 : :Chapter 16
01:35:44.279 : :Chapter 17
01:35:45.738 : :Chapter 18
piratbit.pw



Скачать Попавшиеся через торрент http://hostpic.gq/img/2017-05/02/izt3gtvkjkzdxi85hsa9ixijx.jpg Скачать фильм Попавшиеся через торрент бесплантно в хорошем качестве Описание: Четверо студентов едут пошататься по горам, где некстати наблюдают расправу, устроенную местными жителями-отщепенцами над ... 5 10 1
Info! Золотая раздача, скачанное не засчитывается.
Торрент: Зарегистрирован [2017-05-02 09:52] · скачан: 4 раз
Статус: √ проверено
Размер: 4.5 GB
Как cкачать? Как скачать Попавшиеся через торрент | UTorrent

% Раздел Тема Автор DL S | L
Фильмы с авторской озвучкой [ 12.63 GB ] Попавшиеся / Trapped [1982 BDRip 1080p by msltel] AVO msltel Скачать
1 | 0

28-11-2019 20:33  

Отключить всю рекламу на сайте

    Дорогой пользователь! Огромная просьба, поблагодарите релизера, оцените раздачу и оставьте свои комментарий, если Вы скачали Попавшиеся через торрент бесплатно! Внесите свою лепту в развитие PiratBit!
    Комментировать посты могут только пользователи прошедшие не сложную регистрацию
    Показать сообщения:    

    Попавшиеся через торрент
    Скачать бесплатно Попавшиеся
    Попавшиеся скачать торрент
    Попавшиеся смотреть онлайн
    Cкачать фильм Попавшиеся бесплатно
    Попавшиеся скачать торрент в хорошем качестве
    Попавшиеся смотреть онлайн бесплатно в хорошем качестве


    Вы не можете начинать темы
    Вы не можете отвечать на сообщения
    Вы не можете редактировать свои сообщения
    Вы не можете удалять свои сообщения
    Вы не можете голосовать в опросах
    Вы не можете прикреплять файлы к сообщениям
    Вы можете скачивать файлы