Marvel's Avengers Deluxe Edition (супер цена) 159р. Внимание количество ограничено!!!

2 сезон

iTunes

iTunes

1

iTunes

iTunes

iTunes

WEBRip

iTunes

30
pack

Новость дня

ВАЖНО

!!Акция!!

Alien_RageХит недели

RePack

Horizon Zero Dawn

ИГРА 18+

pack

RePack

jed

!!Акция!!

Alien_Rage

RePack

fifa19

RePack

Assassins Creed: Odyssey

RePack

NEED FOR SPEED™ PAYBACK

4 сезон

9 сезон

Бесстыжие 9 сезон

Все сериалы

все сериалы на PB.wtf

RePack

FAR CRY 5
  

Викинг (Андрей Кравчук ) [2016, история, драма, BDRip 720p от potroks] Лицензия piratbit.pw

Викинг через торрент piratbit.pw

Размер: 5.75 GB | Добавлен: 3 года 4 мес. назад | Торрент скачан:292 раза
Скачать  

27-04-2017 08:13 Викинг Скачать торрент  

Викинг

Год выпуска: 2016
Страна: Россия / Дирекция Кино
Жанр: история, драма
Продолжительность: 02:22:40
Перевод: Оригинал [Blu-ray GER]
Навигация по главам: есть

Режиссер: Андрей Кравчук
В ролях:

Данила Козловский (Владимир), Светлана Ходченкова (Ирина), Максим Суханов (Свенельд), Игорь Петренко (Варяжко), Андрей Смоляков (Роговолд), Владимир Епифанцев (Федор), Александра Бортич (Рогнеда), Кирилл Плетнёв (Олег), Александр Устюгов (Ярополк), Ростислав Бершауэр (Блуд), Павел Делонг (Анастас), Алексей Демидов (Самоха)

Описание: Раннее Средневековье. Время тяжелых мечей и темных законов крови. Правящий род в раздоре. Вина за случайную смерть брата легла на Великого Князя. По закону мстить ему должен младший брат - бастард. За отказ убивать он заплатит всем, что у него было, потому что «для мира нужно больше мечей, чем для войны».



Качество: BDRip 720p
Формат: MKV
Видео: AVC, 1280x534 (2.40:1), 5140 kbps, 23,976 fps, 0,314 bpp
Аудио: русский / AC3 / 5.1 / 48 kHz / 640 kbps / 16 bit
General
Unique ID : 222215041552147969352620445737337041039 (0xA72D0F6D52224144B5FFECAC2881308F)
Complete name : D:\Viking.2016.RUS.BDRip.720p.-HELLYWOOD.mkv
Format : Matroska
Format version : Version 4 / Version 2
File size : 5.75 GiB
Duration : 2 h 22 min
Overall bit rate : 5 766 kb/s
Movie name : Викинг (2016)
Encoded date : UTC 2017-04-27 07:47:46
Writing application : mkvmerge v5.9.0 ('On The Loose') built on Dec 15 2012 16:39:58
Writing library : libebml v1.3.0 + libmatroska v1.4.0

Video
ID : 1
Format : AVC
Format/Info : Advanced Video Codec
Format profile : High@L4.1
Format settings, CABAC : Yes
Format settings, ReFrames : 9 frames
Codec ID : V_MPEG4/ISO/AVC
Duration : 2 h 22 min
Bit rate : 5 140 kb/s
Width : 1 280 pixels
Height : 534 pixels
Display aspect ratio : 2.40:1
Frame rate mode : Constant
Frame rate : 23.976 FPS
Color space : YUV
Chroma subsampling : 4:2:0
Bit depth : 8 bits
Scan type : Progressive
Bits/(Pixel*Frame) : 0.314
Stream size : 4.99 GiB (87%)
Title : potroks
Writing library : x264 core 146 r2538 121396c
Encoding settings : cabac=1 / ref=9 / deblock=1:-3:-3 / analyse=0x3:0x113 / me=umh / subme=11 / psy=1 / psy_rd=1.00:0.05 / mixed_ref=1 / me_range=56 / chroma_me=1 / trellis=2 / 8x8dct=1 / cqm=0 / deadzone=21,11 / fast_pskip=0 / chroma_qp_offset=-3 / threads=9 / lookahead_threads=2 / sliced_threads=0 / nr=0 / decimate=0 / interlaced=0 / bluray_compat=0 / constrained_intra=0 / bframes=10 / b_pyramid=2 / b_adapt=2 / b_bias=0 / direct=3 / weightb=1 / open_gop=0 / weightp=2 / keyint=240 / keyint_min=23 / scenecut=40 / intra_refresh=0 / rc_lookahead=60 / rc=2pass / mbtree=0 / bitrate=5140 / ratetol=1.0 / qcomp=0.70 / qpmin=0 / qpmax=69 / qpstep=4 / cplxblur=20.0 / qblur=0.5 / vbv_maxrate=14000 / vbv_bufsize=14000 / nal_hrd=none / filler=0 / ip_ratio=1.40 / pb_ratio=1.30 / aq=1:0.80
Language : Russian
Default : Yes
Forced : No

Audio
ID : 2
Format : AC-3
Format/Info : Audio Coding 3
Mode extension : CM (complete main)
Format settings, Endianness : Big
Codec ID : A_AC3
Duration : 2 h 22 min
Bit rate mode : Constant
Bit rate : 640 kb/s
Channel(s) : 6 channels
Channel positions : Front: L C R, Side: L R, LFE
Sampling rate : 48.0 kHz
Frame rate : 31.250 FPS (1536 spf)
Compression mode : Lossy
Stream size : 653 MiB (11%)
Title : Original | DD 5.1 @ 640 kbps - Blu-ray GER
Language : Russian
Default : Yes
Forced : No

Menu
00:00:00.000 : en:(01)00:00:00:000
00:14:33.998 : en:(02)00:14:33:998
00:25:23.980 : en:(03)00:25:23:980
00:37:35.211 : en:(04)00:37:35:211
00:48:08.218 : en:(05)00:48:08:218
00:59:10.046 : en:(06)00:59:10:046
01:08:41.367 : en:(07)01:08:41:367
01:19:54.831 : en:(08)01:19:54:831
01:31:57.720 : en:(09)01:31:57:720
01:45:39.583 : en:(10)01:45:39:583
01:58:02.742 : en:(11)01:58:02:742
02:13:05.102 : en:(12)02:13:05:102
02:22:13.483 : en:(13)02:22:13:483
piratbit.pw



Скачать Викинг через торрент http://i90.fastpic.ru/big/2017/0427/97/b3c400c49ecb492572a04f8e44a75997.png Скачать фильм Викинг через торрент бесплантно в хорошем качестве Описание: Раннее Средневековье. Время тяжелых мечей и темных законов крови. Правящий род в раздоре. Вина за случайную смерть брата легла ... 8 10 9
Info! Золотая раздача, скачанное не засчитывается.
Торрент: Зарегистрирован [2017-04-27 08:13] · скачан: 292 раз
Статус: √ проверено
Размер: 5.75 GB
Как cкачать? Как скачать Викинг через торрент | qTorrent

% Раздел Тема Автор DL S | L
Наши фильмы (Blu-ray, BD-Remux, HDDVD) [ 35.46 GB ] Викинг [2016 история Blu-ray BD GER] / Расширенная версия schultz Скачать
1 | 0
Наши новые фильмы 2016 [ 1.46 GB ] Викинг [2016 история BDRip-AVC] [Расширенная версия] [] sokol_ok Скачать
2 | 0
Фильмы 2014 [DVDrip, WEB-DLRip, HDrip] [ 1.46 GB ] Викинги / Northmen - A Viking Saga [2014 BDRip] - [] Twi7ter Скачать
1 | 0
Фильмы 2014 [DVDrip, WEB-DLRip, HDrip] [ 2.2 GB ] Викинги / Northmen - A Viking Saga [2014 HDRip-AVC] - ExKinoRay Enigma2010 Скачать
1 | 0
Наши новые фильмы 2016 [ 4.62 GB ] Викинг [2016 история BDRip-AVC] [Расширенная версия] [] sokol_ok Скачать
2 | 0
Наши новые фильмы 2016 [ 3.01 GB ] Викинг [2016 история BDRip-AVC] [Расширенная версия] [] sokol_ok Скачать
1 | 0
Наши фильмы (HD, WEB-DL 720p, 1080p) [ 13.71 GB ] Викинг [2016 история BDRip 1080p] [UNRATED] [] smaster Скачать
1 | 0

28-11-2019 20:33  

Отключить всю рекламу на сайте

    Дорогой пользователь! Огромная просьба, поблагодарите релизера, оцените раздачу и оставьте свои комментарий, если Вы скачали Викинг через торрент бесплатно! Внесите свою лепту в развитие PiratBit!
    Комментировать посты могут только пользователи прошедшие не сложную регистрацию
    Показать сообщения:    

    Викинг через торрент
    Скачать бесплатно Викинг
    Викинг скачать торрент
    Викинг смотреть онлайн
    Cкачать фильм Викинг бесплатно
    Викинг скачать торрент в хорошем качестве
    Викинг смотреть онлайн бесплатно в хорошем качестве


    Вы не можете начинать темы
    Вы не можете отвечать на сообщения
    Вы не можете редактировать свои сообщения
    Вы не можете удалять свои сообщения
    Вы не можете голосовать в опросах
    Вы не можете прикреплять файлы к сообщениям
    Вы можете скачивать файлы