Marvel's Avengers Deluxe Edition (супер цена) 159р. Внимание количество ограничено!!!

2 сезон

iTunes

iTunes

1

iTunes

iTunes

iTunes

WEBRip

iTunes

30
pack

Новость дня

ВАЖНО

!!Акция!!

Alien_RageХит недели

RePack

Horizon Zero Dawn

ИГРА 18+

pack

RePack

jed

!!Акция!!

Alien_Rage

RePack

fifa19

RePack

Assassins Creed: Odyssey

RePack

NEED FOR SPEED™ PAYBACK

4 сезон

9 сезон

Бесстыжие 9 сезон

Все сериалы

все сериалы на PB.wtf

RePack

FAR CRY 5
  

Портрет женщины в красном (Станислав Дремов) [2016, мелодрама, WEB-DL 720p] piratbit.pw

Портрет женщины в красном через торрент piratbit.pw

Размер: 1.77 GB | Добавлен: 3 года 4 мес. назад | Торрент скачан:32 раза
Скачать  

24-04-2017 14:24 Портрет женщины в красном Скачать торрент  

Портрет женщины в красном
Год выпуска: 2016
Страна: Россия
Жанр: мелодрама
Продолжительность: 01:31:50
Субтитры: отсутствуют

Режиссер: Станислав Дремов



В ролях:

Наталья Терехова, Андрей Горбачёв, Игорь Ботвин, Кира Кауфман, Надежда Паршина, Алексей Попретинский, Елена Лопаткина, Владислав Лобанов, Ольга Белявская, Анна Алексахина, Анастасия Мошкович, Кристина Убелс, Пётр Харченко

Описание:

Анна (Наталья Терехова) – молодой талантливый хирург из провинции, заканчивает ординатуру в больнице. На вечеринке у подруги Юли (Кира Кауфман) влюбляется в парня Диму (Андрей Горбачев), студента киноакадемии. Но их любви не суждено состояться. В отношения молодых людей вмешивается мама Димы, не желающая видеть провинциалку в своем доме. Любви героев мешает и Юля, которая сама претендовала на Диму. Увлекшись Юлей, Дима бросает Анну. Беременная героиня вынуждена вернуться в свой родной приморский городок. Проходят годы. Анна уже состоявшийся хирург, главврач областной больницы. У нее взрослая дочь Ксюша (Надежда Паршина) и отношения с ее бывшим пациентом Юрием (Игорь Ботвин). Но все меняется, когда внезапно после ДТП в больницу попадает Дмитрий. Вскоре он узнает, что студентка в киноакадемии Ксюша, в которой он преподает – его дочь. Несчастный в браке с Юлей, Дмитрий решает вернуть себе дочь и бывшую любовь. Теперь Анне приходится выбирать – кого из двух мужчин Дмитрия или Юрия впустить в свою жизнь, а Ксюше – кого из них называть папой.

Качество: WEB-DL 720p
Формат: MKV
Видео кодек: H.264
Аудио кодек: AC3

Видео: 1280х720 (16:9), 25 fps, AVC MPEG-4 (x264), High@L4, ~ 2513 kbps avg, 0.109 bit/pixel
Аудио#1: 48 kHz, AC3, 2/0 (L,R) ch, ~192 kbps
скриншот   скриншот   скриншот   скриншот  

Общее
Уникальный идентификатор : 200225288885934470327065131342000747451 (0x96A1FCEA381A3306A411BAB7402EF3BB)
Полное имя : C:\Портрет женщины в красном.2016.720p.mkv
Формат : Matroska
Версия формата : Version 2
Размер файла : 1,77 Гбайт
Продолжительность : 1 ч. 31 м.
Общий поток : 2760 Кбит/сек
Дата кодирования : UTC 2017-04-23 09:09:07
Программа кодирования : mkvmerge v6.1.0 ('Old Devil') built on Mar 4 2013 09:10:42
Библиотека кодирования : libebml v1.3.0 + libmatroska v1.4.0

Видео
Идентификатор : 1
Формат : AVC
Формат/Информация : Advanced Video Codec
Профиль формата : High@L4
Параметр CABAC формата : Да
Параметр ReFrames формата : 4 кадра
Идентификатор кодека : V_MPEG4/ISO/AVC
Продолжительность : 1 ч. 31 м.
Битрейт : 2513 Кбит/сек
Ширина : 1280 пикселей
Высота : 720 пикселей
Соотношение сторон : 16:9
Режим частоты кадров : Постоянный
Частота кадров : 25,000 кадров/сек
Цветовое пространство : YUV
Субдискретизация насыщенности : 4:2:0
Битовая глубина : 8 бит
Тип развёртки : Прогрессивная
Бит/(Пиксели*Кадры) : 0.109
Размер потока : 1,61 Гбайт (91%)
Язык : English
Default : Да
Forced : Нет

Аудио
Идентификатор : 2
Формат : AC-3
Формат/Информация : Audio Coding 3
Параметр Endianness формата : Big
Идентификатор кодека : A_AC3
Продолжительность : 1 ч. 31 м.
Вид битрейта : Постоянный
Битрейт : 192 Кбит/сек
Каналы : 2 канала
Расположение каналов : Front: L R
Частота : 48,0 КГц
Частота кадров : 31,250 кадров/сек (1536 spf)
Битовая глубина : 16 бит
Метод сжатия : С потерями
Размер потока : 126 Мбайт (7%)
ServiceKind/String : Complete Main
Default : Да
Forced : Нет

piratbit.pw



Скачать Портрет женщины в красном через торрент http://rudb.org/img/2017_04/i58fca9dcd3ad9.jpg Скачать фильм Портрет женщины в красном через торрент бесплантно в хорошем качестве Описание: Анна (Наталья Терехова) – молодой талантливый хирург из провинции, заканчивает ординатуру в больнице. На вечеринке у подруги Юли ... 10 10 4
Торрент: Зарегистрирован [2017-04-24 14:24] · скачан: 32 раз
Статус: √ проверено
Размер: 1.77 GB
Как cкачать? Как скачать Портрет женщины в красном через торрент | qTorrent

% Раздел Тема Автор DL S | L
Наши новые фильмы 2016 [ 1.36 GB ] Портрет женщины в красном [2016 WEB-DLRip] oleg8 Скачать
1 | 0

28-11-2019 20:33  

Отключить всю рекламу на сайте

    Дорогой пользователь! Огромная просьба, поблагодарите релизера, оцените раздачу и оставьте свои комментарий, если Вы скачали Портрет женщины в красном через торрент бесплатно! Внесите свою лепту в развитие PiratBit!
    Комментировать посты могут только пользователи прошедшие не сложную регистрацию
    Показать сообщения:    

    Портрет женщины в красном через торрент
    Скачать бесплатно Портрет женщины в красном
    Портрет женщины в красном скачать торрент
    Портрет женщины в красном смотреть онлайн
    Cкачать фильм Портрет женщины в красном бесплатно
    Портрет женщины в красном скачать торрент в хорошем качестве
    Портрет женщины в красном смотреть онлайн бесплатно в хорошем качестве


    Вы не можете начинать темы
    Вы не можете отвечать на сообщения
    Вы не можете редактировать свои сообщения
    Вы не можете удалять свои сообщения
    Вы не можете голосовать в опросах
    Вы не можете прикреплять файлы к сообщениям
    Вы можете скачивать файлы