Ссылка на приватное зеркало нашего сайта всего за 1$. Внимание количество ограничено!!!

2 сезон

iTunes

iTunes

1

iTunes

iTunes

iTunes

WEBRip

iTunes

30
pack

Новость дня

ВАЖНО

!!Акция!!

Alien_RageХит недели

RePack

Horizon Zero Dawn

ИГРА 18+

pack

RePack

jed

!!Акция!!

Alien_Rage

RePack

fifa19

RePack

Assassins Creed: Odyssey

RePack

NEED FOR SPEED™ PAYBACK

4 сезон

9 сезон

Бесстыжие 9 сезон

Все сериалы

все сериалы на PB.wtf

RePack

FAR CRY 5
  

Притяжение (Фёдор Бондарчук ) [2017, фантастика, BDRip 720p от potroks] Лицензия piratbit.pw

Притяжение через торрент piratbit.pw

Размер: 5.73 GB | Добавлен: 3 года 4 мес. назад | Торрент скачан:990 раз
Скачать  

24-04-2017 03:26 Притяжение Скачать торрент  

Притяжение

Год выпуска: 2017
Страна: Россия / Кинокомпания «Водород», Art Pictures Studio
Жанр: фантастика
Продолжительность: 02:12:31
Перевод: Оригинал [Blu-ray RUS]
Субтитры: русские
Навигация по главам: есть
Режиссер: Фёдор Бондарчук
В ролях:

Ирина Старшенбаум (Юля Лебедева), Александр Петров (Артём), Риналь Мухаметов (Хэкон / Харитон), Олег Меньшиков (полковник Лебедев), Евгений Сангаджиев (Питон), Алексей Маслодудов, Никита Кукушкин (Руслан), Евгений Михеев («Гугл»), Антон Шпиньков, Евгений Коряковский (учитель), Дарья Руденок (Светлана Морозова), Людмила Максакова (Люба, бабушка Юли Лебедевой)
Описание: ...Как только что стало известно, сбитый над Москвой неопознанный объект имеет, возможно, внеземное происхождение. Большая часть столичного Чертанова оцеплена, к месту крушения стягиваются представители силовых структур, решается вопрос об эвакуации местных жителей. По словам нашего источника в Минобороны, сейчас специальная комиссия пытается вступить в контакт с так называемыми «гостями». В эти минуты мы готовим экстренный выпуск новостей и о развитии событий вы узнаете первыми...

Качество: BDRip 720p
Формат: MKV
Видео: AVC, 1280x536 (2.40:1), 5548 kbps, 24 fps, 0,337 bpp
Аудио: русский / AC3 / 5.1 / 48 kHz / 640 kbps / 16 bit
General
Unique ID : 210398976972563199219864870360714860820 (0x9E495E76EA1730FD9CE5AB1CF7185914)
Complete name : D:\Prityazheniye.2017.RUS.BDRip.720p.-HELLYWOOD.mkv
Format : Matroska
Format version : Version 4 / Version 2
File size : 5.73 GiB
Duration : 2 h 12 min
Overall bit rate : 6 189 kb/s
Movie name : Притяжение (2017)
Encoded date : UTC 2017-04-24 03:00:44
Writing application : mkvmerge v5.9.0 ('On The Loose') built on Dec 15 2012 16:39:58
Writing library : libebml v1.3.0 + libmatroska v1.4.0

Video
ID : 1
Format : AVC
Format/Info : Advanced Video Codec
Format profile : High@L4.1
Format settings, CABAC : Yes
Format settings, ReFrames : 9 frames
Codec ID : V_MPEG4/ISO/AVC
Duration : 2 h 12 min
Bit rate : 5 548 kb/s
Width : 1 280 pixels
Height : 536 pixels
Display aspect ratio : 2.40:1
Frame rate mode : Constant
Frame rate : 24.000 FPS
Color space : YUV
Chroma subsampling : 4:2:0
Bit depth : 8 bits
Scan type : Progressive
Bits/(Pixel*Frame) : 0.337
Stream size : 5.02 GiB (88%)
Title : potroks
Writing library : x264 core 146 r2538 121396c
Encoding settings : cabac=1 / ref=9 / deblock=1:-3:-3 / analyse=0x3:0x113 / me=umh / subme=11 / psy=1 / psy_rd=0.99:0.05 / mixed_ref=1 / me_range=56 / chroma_me=1 / trellis=2 / 8x8dct=1 / cqm=0 / deadzone=21,11 / fast_pskip=0 / chroma_qp_offset=-3 / threads=9 / lookahead_threads=2 / sliced_threads=0 / nr=0 / decimate=0 / interlaced=0 / bluray_compat=0 / constrained_intra=0 / bframes=11 / b_pyramid=2 / b_adapt=2 / b_bias=0 / direct=3 / weightb=1 / open_gop=0 / weightp=2 / keyint=240 / keyint_min=23 / scenecut=40 / intra_refresh=0 / rc_lookahead=60 / rc=2pass / mbtree=0 / bitrate=5548 / ratetol=1.0 / qcomp=0.70 / qpmin=0 / qpmax=69 / qpstep=4 / cplxblur=20.0 / qblur=0.5 / vbv_maxrate=14000 / vbv_bufsize=14000 / nal_hrd=none / filler=0 / ip_ratio=1.40 / pb_ratio=1.30 / aq=1:0.80
Language : Russian
Default : Yes
Forced : No

Audio
ID : 2
Format : AC-3
Format/Info : Audio Coding 3
Mode extension : CM (complete main)
Format settings, Endianness : Big
Codec ID : A_AC3
Duration : 2 h 12 min
Bit rate mode : Constant
Bit rate : 640 kb/s
Channel(s) : 6 channels
Channel positions : Front: L C R, Side: L R, LFE
Sampling rate : 48.0 kHz
Frame rate : 31.250 FPS (1536 spf)
Compression mode : Lossy
Stream size : 607 MiB (10%)
Title : DD 5.1 @ 640 kbps - Blu-ray RUS
Language : Russian
Default : Yes
Forced : No

Text
ID : 3
Format : UTF-8
Codec ID : S_TEXT/UTF8
Codec ID/Info : UTF-8 Plain Text
Title : Bonnie
Language : Russian
Default : No
Forced : No

Menu
00:00:00.000 : en:(01)00:00:00:000
00:10:03.708 : en:(02)00:10:03:708
00:23:20.208 : en:(03)00:23:20:208
00:29:36.458 : en:(04)00:29:36:458
00:42:24.416 : en:(05)00:42:24:416
00:50:32.000 : en:(06)00:50:32:000
01:02:20.500 : en:(07)01:02:20:500
01:14:38.791 : en:(08)01:14:38:791
01:23:25.291 : en:(09)01:23:25:291
01:37:06.583 : en:(10)01:37:06:583
01:46:10.125 : en:(11)01:46:10:125
01:55:38.500 : en:(12)01:55:38:500
02:12:31.791 : en:(13)02:12:31:791
piratbit.pw



Скачать Притяжение через торрент http://i89.fastpic.ru/big/2017/0424/bb/66e4b44e5468638482275cb242469cbb.png Скачать фильм Притяжение через торрент бесплантно в хорошем качестве Описание: ...Как только что стало известно, сбитый над Москвой неопознанный объект имеет, возможно, внеземное происхождение. Большая часть ... 8 10 28
Info! Золотая раздача, скачанное не засчитывается.
Торрент: Зарегистрирован [2017-04-24 03:26] · скачан: 990 раз
Статус: √ проверено
Размер: 5.73 GB
Как cкачать? Как скачать Притяжение через торрент | qTorrent

% Раздел Тема Автор DL S | L
Наши новые фильмы 2017 [ 795 MB ] Притяжение [2017 BDRip] [ BD RUS] bober100 Скачать
1 | 0
Наши фильмы (HD, WEB-DL 720p, 1080p) [ 13.2 GB ] Притяжение [2017 BDRip 1080p] [] bober100 Скачать
1 | 0
Наши новые фильмы 2017 [ 1.46 GB ] Притяжение [2017 BDRip] Оригинал [] Twi7ter Скачать
1 | 0
Наши новые фильмы 2017 [ 2.36 GB ] Притяжение [2017 Россия BDRip-AVC] [] от ExKinoRay Enigma2010 Скачать
1 | 0
Наши новые фильмы 2017 [ 2.19 GB ] Притяжение [2017 BDRip] Оригинал [] Twi7ter Скачать
1 | 0
Наши фильмы (Blu-ray, BD-Remux, HDDVD) [ 21.82 GB ] Притяжение [2017 Blu-Ray 1080р] Russian Mafia Скачать
1 | 0

28-11-2019 20:33  

Отключить всю рекламу на сайте

24-04-2017 10:19 Притяжение Скачать торрент  

запомнился чувак с шилом и баба с пистолетом и фсеее!!piratbit.pw



25-04-2017 21:13 Притяжение Скачать торрент  

А мне фильм, надо сказать, понравился. Не весь, но местами очень даже ничего. А больше всего, наверное, понравилось, что тут есть какая-то попытка создать интересное кино. Еще особенно понравилось (в сравнении с наводнившей в последнее время американской хренью, в которой америкосы до дрожи в пятках уверены в своем всемогуществе и превосходстве), что тут не было такого - ни в ощущении фильма, ни в диалогах.
Посмотреть можно. Если кто еще не посмотрел - не отговариваю. А те, кто ругает - подумайте, с чем вы сравниваете кино и как часто после фильма задумывались о жизни...piratbit.pw



29-04-2017 18:42 Притяжение Скачать торрент  

Днище это мало сказано!piratbit.pw



29-04-2017 18:44 Притяжение Скачать торрент  

хорошо что я не пошел в кино на это...piratbit.pw



30-04-2017 16:08 Притяжение Скачать торрент  

dima15 писал(а):

хорошо что я не пошел в кино на это...

Молодец сиди дома качай смотри халявуpiratbit.pw



06-05-2017 16:46 Притяжение Скачать торрент  

Классный фильм. Просто фильм не для тупых. Смотрите аватар - там спецэффекты красивше. Вам же это главное.piratbit.pw



11-05-2017 12:55 Притяжение Скачать торрент  

бондарчук там всё попутал что ли снял такой геморой а у него в фильме детишки в школу пошли я в шокеpiratbit.pw



12-05-2017 22:37 Притяжение Скачать торрент  

Реальная угроза человечеству исходит не от пришельцев из космоса,а от таких бездарных фильмов...piratbit.pw



14-05-2017 08:24 Притяжение Скачать торрент  

Jakkal писал(а):

Классный фильм. Просто фильм не для тупых. Смотрите аватар - там спецэффекты красивше. Вам же это главное.

интересно, твои остальные 2 комментария за 7.5 лет на трекере лучше этого?!скриншот  

могу еще Зеленый слоник посоветовать, там вообще спецэффектов нету.piratbit.pw



15-05-2017 12:27 Притяжение Скачать торрент  

piratbit.pw



17-09-2017 17:11 Притяжение Скачать торрент  

Decadence писал(а):

Реальная угроза человечеству исходит не от пришельцев из космоса,а от таких бездарных фильмов...

Можно, конечно, придраться. Но, вообще, умный фильм о том, что не надо быть такими козлами, которых не принимают в галактике, а нужно оставаться людьми с большой буквы, как и сказано в Библии.piratbit.pw



02-03-2018 16:10 Притяжение Скачать торрент  

Мля... это дерьмо даже не качается...piratbit.pw



    Дорогой пользователь! Огромная просьба, поблагодарите релизера, оцените раздачу и оставьте свои комментарий, если Вы скачали Притяжение через торрент бесплатно! Внесите свою лепту в развитие PiratBit!
    Комментировать посты могут только пользователи прошедшие не сложную регистрацию
    Показать сообщения:    

    Притяжение через торрент
    Скачать бесплатно Притяжение
    Притяжение скачать торрент
    Притяжение смотреть онлайн
    Cкачать фильм Притяжение бесплатно
    Притяжение скачать торрент в хорошем качестве
    Притяжение смотреть онлайн бесплатно в хорошем качестве


    Вы не можете начинать темы
    Вы не можете отвечать на сообщения
    Вы не можете редактировать свои сообщения
    Вы не можете удалять свои сообщения
    Вы не можете голосовать в опросах
    Вы не можете прикреплять файлы к сообщениям
    Вы можете скачивать файлы