Marvel's Avengers Deluxe Edition (супер цена) 159р. Внимание количество ограничено!!!

2 сезон

iTunes

iTunes

1

iTunes

iTunes

iTunes

WEBRip

iTunes

30
pack

Новость дня

ВАЖНО

!!Акция!!

Alien_RageХит недели

RePack

Horizon Zero Dawn

ИГРА 18+

pack

RePack

jed

!!Акция!!

Alien_Rage

RePack

fifa19

RePack

Assassins Creed: Odyssey

RePack

NEED FOR SPEED™ PAYBACK

4 сезон

9 сезон

Бесстыжие 9 сезон

Все сериалы

все сериалы на PB.wtf

RePack

FAR CRY 5
  

О любви (Владимир Бортко) [2017, Мелодрама, WEB-DL 720p] [iTunes] piratbit.pw

О любви через торрент piratbit.pw

Размер: 2.94 GB | Добавлен: 3 года 5 мес. назад | Торрент скачан:64 раза
Скачать  

17-04-2017 04:28 О любви Скачать торрент  

О любви
Год выпуска: 2017
Страна: Россия
Жанр: Мелодрама
Продолжительность: 01:34:43
Перевод: Не требуется (русский) | iTunes
Субтитры: отсутствуют

Режиссер: Владимир Бортко



В ролях:

Анна Чиповская, Алексей Чадов, Мария Миронова, Александр Лыков, Дмитрий Певцов, Светлана Хомич, Ольга Павлюкова, Клавдия Белова

Описание:

Петербурженка Нина — студентка, жена молодого красавца-профессора, который знает китайский язык и учения Поднебесной, похоже, лучше, чем окружающую российскую действительность. Нина убеждена, что супружеская верность и смирение и есть любовь. Но всё меняется, когда в её жизни появляется банкир Сергей…

Качество: WEB-DL 720p
Формат: MKV
Видео кодек: H.264
Аудио кодек: AC3

Видео: 1280x690p (1,85:1), 24,000 fps, AVC MPEG-4 (x264), High@L3.1, ~3967 Кбит avg., 0.187 bit/pixel
Аудио#1: Русский: 48 kHz/16 бит, AC3 Dolby Digital, 3/2 (L,C,R,l,r) + LFE ch, ~384 kbps avg [iTunes]
скриншот   скриншот   скриншот   скриншот  

Общее
Уникальный идентификатор : 241542781942189616678234913306947845522 (0xB5B77299CCDECC7FB0DF14C4467B7D92)
Полное имя : E:\Закачка-2\O.LubVi.2O17.O.WEB-DL.72OP.mkv
Формат : Matroska
Версия формата : Version 2
Размер файла : 2,94 Гбайт
Продолжительность : 1 ч. 34 м.
Общий поток : 4439 Кбит/сек
Дата кодирования : UTC 2017-04-16 18:07:28
Программа кодирования : mkvmerge v8.3.0 ('Over the Horizon') 64bit
Библиотека кодирования : libebml v1.3.1 + libmatroska v1.4.2

Видео
Идентификатор : 1
Формат : AVC
Формат/Информация : Advanced Video Codec
Профиль формата : High@L3.1
Параметр CABAC формата : Нет
Параметр ReFrames формата : 2 кадра
Идентификатор кодека : V_MPEG4/ISO/AVC
Продолжительность : 1 ч. 34 м.
Битрейт : 3967 Кбит/сек
Ширина : 1280 пикселей
Высота : 690 пикселей
Соотношение сторон : 1,85:1
Режим частоты кадров : Постоянный
Частота кадров : 24,000 кадра/сек
Цветовое пространство : YUV
Субдискретизация насыщенности : 4:2:0
Битовая глубина : 8 бит
Тип развёртки : Прогрессивная
Бит/(Пиксели*Кадры) : 0.187
Размер потока : 2,62 Гбайт (89%)
Язык : English
Default : Да
Forced : Нет
Цветовой диапазон : Limited
Основные цвета : BT.709
Характеристики трансфера : BT.709
Коэффициенты матрицы : BT.709

Аудио
Идентификатор : 2
Формат : AC-3
Формат/Информация : Audio Coding 3
Параметр Endianness формата : Big
Идентификатор кодека : A_AC3
Продолжительность : 1 ч. 34 м.
Вид битрейта : Постоянный
Битрейт : 384 Кбит/сек
Каналы : 6 каналов
Расположение каналов : Front: L C R, Side: L R, LFE
Частота : 48,0 КГц
Частота кадров : 31,250 кадров/сек (1536 spf)
Битовая глубина : 16 бит
Метод сжатия : С потерями
Размер потока : 260 Мбайт (9%)
Язык : Russian
ServiceKind/String : Complete Main
Default : Да
Forced : Нет

Меню
00:00:00.000 : en:Глава 1
00:08:35.875 : en:Глава 2
00:14:39.250 : en:Глава 3
00:19:33.041 : en:Глава 4
00:25:52.041 : en:Глава 5
00:31:20.291 : en:Глава 6
00:37:38.291 : en:Глава 7
00:46:07.874 : en:Глава 8
00:51:37.915 : en:Глава 9
00:57:39.373 : en:Глава 10
01:02:57.623 : en:Глава 11
01:08:00.123 : en:Глава 12
01:13:40.414 : en:Глава 13
01:19:37.080 : en:Глава 14
01:27:52.871 : en:Глава 15

piratbit.pw



Скачать О любви через торрент http://s019.radikal.ru/i618/1704/ec/d18df1871d7c.jpg Скачать фильм О любви через торрент бесплантно в хорошем качестве Описание: Петербурженка Нина — студентка, жена молодого красавца-профессора, который знает китайский язык и учения Поднебесной, похоже, ... 10 10 5
Торрент: Зарегистрирован [2017-04-17 04:28] · скачан: 64 раз
Статус: √ проверено
Размер: 2.94 GB
Как cкачать? Как скачать О любви через торрент | qTorrent

% Раздел Тема Автор DL S | L
Отечественная Поп музыка (mp3) [ 95 MB ] Артур Пирожков - Всё о любви 2020 / MP3 / 320 kbps / Поп bober100 Скачать
1 | 0
# Фильмы (мультфильмы) cо спонсором показа (Новинки AVI/MKV) [ 4.82 GB ] Повесть о любви и тьме / A Tale of Love and Darkness [2015 военный биография история BDRip 720p] MVO [Официальный звук] bober100 Скачать
1 | 0
T Фильмы (мультфильмы) cо спонсором показа (Новинки AVI/MKV) [ 1.37 GB ] Повесть о любви и тьме / A Tale of Love and Darkness [2015 военный биография история HDRip] MVO [Официальный звук] bober100 Скачать
1 | 0
Кино СССР [ 1.09 GB ] Сказание о любви [1962 СССР VHSRip-AVC от AVP Studio] AVP Studio Скачать
1 | 0
Кино СССР [ 1.09 GB ] Сказание о любви [1962 СССР VHSRip от AVP Studio] AVP Studio Скачать
1 | 0
Наши фильмы (Blu-ray, BD-Remux, HDDVD) [ 12.16 GB ] О любви [2017 BDRip 1080p by msltel] GER Transfer msltel Скачать
1 | 0
Наши фильмы (Blu-ray, BD-Remux, HDDVD) [ 4.92 GB ] О любви [2017 BDRip 720p by msltel] GER Transfer msltel Скачать
1 | 0

28-11-2019 20:33  

Отключить всю рекламу на сайте

    Дорогой пользователь! Огромная просьба, поблагодарите релизера, оцените раздачу и оставьте свои комментарий, если Вы скачали О любви через торрент бесплатно! Внесите свою лепту в развитие PiratBit!
    Комментировать посты могут только пользователи прошедшие не сложную регистрацию
    Показать сообщения:    

    О любви через торрент
    Скачать бесплатно О любви
    О любви скачать торрент
    О любви смотреть онлайн
    Cкачать фильм О любви бесплатно
    О любви скачать торрент в хорошем качестве
    О любви смотреть онлайн бесплатно в хорошем качестве


    Вы не можете начинать темы
    Вы не можете отвечать на сообщения
    Вы не можете редактировать свои сообщения
    Вы не можете удалять свои сообщения
    Вы не можете голосовать в опросах
    Вы не можете прикреплять файлы к сообщениям
    Вы можете скачивать файлы