1 сезон

1 сезон

iTunes

1

КиноПоиск HD

Кинопоиск HD

iTunes

13

1 сезон

RePack

30

Новинка

ВАЖНО

ИГРА 18+

pack

RePack

MK11
pack

Легкие деньги

RePack

jed

RePack

fifa19

RePack

RDR2

RePack

NEED FOR SPEED™ PAYBACK

4 сезон

9 сезон

Бесстыжие 9 сезон

Все сериалы

все сериалы на PB.wtf

RePack

FAR CRY 5
  
Magnet ссылка

Амук / В поисках удовольствия / Amuck / Alla ricerca del piacere (Сильвио Амадио) [1972, триллер, детектив, BDRip 720p от еnvy / NNNB] AVO piratbit.pw

Амук через торрент piratbit.pw

Качают: 8 [ 0 KB/s ]
Размер: 6.65 GB | Добавлен: 4 года назад | Торрент скачан:14 раз
Скачать  

11-04-2017 08:16 Амук Скачать торрент  

Информация о фильме

Русское название: Амук / В поисках удовольствия
Оригинальное название: Amuck / Alla ricerca del piacere
Год выхода: 1972
Жанр: триллер, детектив
Режиссер: Сильвио Амадио
Выпущено: Италия
Продолжительность: 01:40:38
Перевод: Авторский (одногоголосый закадровый)
В ролях: Фарли Грейнджер, Барбара Буше, Розальба Нери, Дино Меле, Умберто Рахо, Нино Сегурини, Патриция Виотти
Описание:

Венеция. Грета Франклин устраивается на работу секретаршей к писателю Ричарду Стюарту. Дело в том, что подруга Греты Салли раньше работала у писателя, но недавно таинственным образом исчезла. Грета решает самостоятельно докопаться до причин её исчезновения...


Файл

Качество: BDRip 720p (исходник Blu-Ray 1080p)
Формат: MKV
Видео: 1280x544, 8820 Кбит/сек, 23,976 кадр/сек, AVC, x264, High@L4.1, 2.35:1, 0.528 Бит/[Пиксели*Кадры]
Аудио 1: AC-3, 192 Кбит/сек, 2 канала(ов), 48,0 КГц - Одноголосый закадровый, А.Алексеев / Русский
Аудио 2: AC-3, 448 Кбит/сек, 2 канала(ов), 48,0 КГц - Оригинал / Английский
Субтитры: Английские | Полные
Форсированные субтитры: Нет
Чаптеры (Главы): Нет
Дополнительная информация: Внимание фильм рекомендован зрителям достигших возраста 18 лет






Автор Рипа: Группа:


Format : Matroska
Format version : Version 2
File size : 6.65 GiB
Duration : 1 h 40 min
Overall bit rate : 9 461 kb/s
Movie name : Alla ricerca del piacere.(1972).BDRip.720p.[envy]
Encoded date : UTC 2017-04-11 05:56:45
Writing application : mkvmerge v5.8.0 ('No Sleep / Pillow') built on Sep 2 2012 15:37:04
Writing library : libebml v1.2.3 + libmatroska v1.3.0

Video
ID : 1
Format : AVC
Format/Info : Advanced Video Codec
Format profile : High@L4.1
Format settings, CABAC : Yes
Format settings, ReFrames : 11 frames
Codec ID : V_MPEG4/ISO/AVC
Duration : 1 h 40 min
Bit rate : 8 820 kb/s
Width : 1 280 pixels
Height : 544 pixels
Display aspect ratio : 2.35:1
Frame rate mode : Constant
Frame rate : 23.976 (24000/1001) FPS
Color space : YUV
Chroma subsampling : 4:2:0
Bit depth : 8 bits
Scan type : Progressive
Bits/(Pixel*Frame) : 0.528
Stream size : 6.07 GiB (91%)
Title : Alla ricerca del piacere.(1972).BDRip.720p.[envy]
Writing library : x264 core 148 r2744 b97ae06
Encoding settings : cabac=1 / ref=11 / deblock=1:-3:-3 / analyse=0x3:0x133 / me=umh / subme=11 / psy=1 / psy_rd=1.00:0.00 / mixed_ref=1 / me_range=32 / chroma_me=1 / trellis=2 / 8x8dct=1 / cqm=0 / deadzone=21,11 / fast_pskip=0 / chroma_qp_offset=-2 / threads=12 / lookahead_threads=1 / sliced_threads=0 / nr=0 / decimate=1 / interlaced=0 / bluray_compat=0 / constrained_intra=0 / bframes=5 / b_pyramid=2 / b_adapt=2 / b_bias=0 / direct=3 / weightb=1 / open_gop=0 / weightp=2 / keyint=240 / keyint_min=23 / scenecut=40 / intra_refresh=0 / rc=2pass / mbtree=0 / bitrate=8820 / ratetol=2.0 / qcomp=0.60 / qpmin=0 / qpmax=69 / qpstep=4 / cplxblur=20.0 / qblur=0.5 / ip_ratio=1.40 / pb_ratio=1.30 / aq=1:0.65
Language : English
Default : Yes
Forced : No

Audio #1
ID : 2
Format : AC-3
Format/Info : Audio Coding 3
Format settings, Endianness : Big
Codec ID : A_AC3
Duration : 1 h 40 min
Bit rate mode : Constant
Bit rate : 192 kb/s
Channel(s) : 2 channels
Channel positions : Front: L R
Sampling rate : 48.0 kHz
Frame rate : 31.250 FPS (1536 spf)
Bit depth : 16 bits
Compression mode : Lossy
Stream size : 138 MiB (2%)
Title : AVO Алексеев
Language : Russian
Service kind : Complete Main
Default : Yes
Forced : No

Audio #2
ID : 3
Format : AC-3
Format/Info : Audio Coding 3
Format settings, Endianness : Big
Codec ID : A_AC3
Duration : 1 h 40 min
Bit rate mode : Constant
Bit rate : 448 kb/s
Channel(s) : 2 channels
Channel positions : Front: L R
Sampling rate : 48.0 kHz
Frame rate : 31.250 FPS (1536 spf)
Bit depth : 16 bits
Compression mode : Lossy
Stream size : 322 MiB (5%)
Title : Eng
Language : English
Service kind : Complete Main
Default : No
Forced : No

Text
ID : 4
Format : UTF-8
Codec ID : S_TEXT/UTF8
Codec ID/Info : UTF-8 Plain Text
Title : Eng full
Language : English
Default : No
Forced : No

piratbit.pw



Скачать Амук через торрент http://img11.lostpic.net/2017/04/11/3224dbef94e08e6a58ef8e8f3f6aff15.png Скачать фильм Амук через торрент бесплантно в хорошем качестве Описание:Венеция. Грета Франклин устраивается на работу секретаршей к писателю Ричарду Стюарту. Дело в том, что подруга Греты Салли раньше ... 10 10 2
Info! Золотая раздача, скачанное не засчитывается.
Торрент: Зарегистрирован [2017-04-11 08:16] · скачан: 14 раз
Статус: √ проверено
Размер: 6.65 GB
Как cкачать? Как скачать Амук через торрент | UTorrent

28-11-2019 20:33  

Отключить всю рекламу на сайте

    Дорогой пользователь! Огромная просьба, поблагодарите релизера, оцените раздачу и оставьте свои комментарий, если Вы скачали Амук через торрент бесплатно! Внесите свою лепту в развитие PiratBit!
    Комментировать посты могут только пользователи прошедшие не сложную регистрацию
    Показать сообщения:    

    Амук через торрент
    Скачать бесплатно Амук
    Амук скачать торрент
    Амук смотреть онлайн
    Cкачать фильм Амук бесплатно
    Амук скачать торрент в хорошем качестве
    Амук смотреть онлайн бесплатно в хорошем качестве


    Вы не можете начинать темы
    Вы не можете отвечать на сообщения
    Вы не можете редактировать свои сообщения
    Вы не можете удалять свои сообщения
    Вы не можете голосовать в опросах
    Вы не можете прикреплять файлы к сообщениям
    Вы можете скачивать файлы