Marvel's Avengers Deluxe Edition (супер цена) 159р. Внимание количество ограничено!!!

2 сезон

iTunes

iTunes

1

iTunes

iTunes

iTunes

WEBRip

iTunes

30
pack

Новость дня

ВАЖНО

!!Акция!!

Alien_RageХит недели

RePack

Horizon Zero Dawn

ИГРА 18+

pack

RePack

jed

!!Акция!!

Alien_Rage

RePack

fifa19

RePack

Assassins Creed: Odyssey

RePack

NEED FOR SPEED™ PAYBACK

4 сезон

9 сезон

Бесстыжие 9 сезон

Все сериалы

все сериалы на PB.wtf

RePack

FAR CRY 5
  

Селфипати / #SELFIEPARTY (Любомир Левицкий) [2016, комедия, WEBRip 720p] Дубляж piratbit.pw

Селфипати через торрент piratbit.pw

Размер: 1.95 GB | Добавлен: 3 года 5 мес. назад | Торрент скачан:179 раз
Скачать  

07-04-2017 15:52 Селфипати Скачать торрент  

Селфипати / #SELFIEPARTY

Год выпуска: 2016
Страна: Украина
Жанр: комедия
Продолжительность: 01:41:18
Перевод: Дубляж
Режиссер: Любомир Левицкий
В ролях:

Ксения Мишина, Артур Шурипа, Борис Савенко, Богдан Рубан, Владимир Сытник, Сергей Зоренко, Павел Ли (охранник), Дмитрий Ступка, Светлана Вальнова (Мария), Сергей Шляхтюк (пожарный), Юрий Горбунов (играет самого себя), Истан Розумный
Описание:
Четверо парней оказались в полицейском участке, где им нужно доказать, что труп карлика обнаруженный после убойной вечеринки - не их рук дело.
Рейтинг:

Качество: WEBRip 720p
Формат: MKV
Видео: AVC, 1280x532 (2.40:1), 2569 kbps, 25 fps, 0,151 bpp
Аудио: AC3 / 2.0 / 48 kHz / 192 kbps /
Релиз от: MegaPeer
General
Unique ID : 187842924831361807445110034448603108506 (0x8D513B3B8C9E31509E93E6AA623F549A)
Complete name : E:\#SELFIEPARTY.2016.720p.MegaPeer.mkv
Format : Matroska
Format version : Version 2
File size : 1.95 GiB
Duration : 1 h 41 min
Overall bit rate : 2 754 kb/s
Encoded date : UTC 2017-04-06 13:23:33
Writing application : mkvmerge v6.1.0 ('Old Devil') built on Mar 4 2013 09:10:42
Writing library : libebml v1.3.0 + libmatroska v1.4.0

Video
ID : 1
Format : AVC
Format/Info : Advanced Video Codec
Format profile : High@L4
Format settings, CABAC : Yes
Format settings, ReFrames : 4 frames
Codec ID : V_MPEG4/ISO/AVC
Duration : 1 h 41 min
Bit rate : 2 569 kb/s
Width : 1 280 pixels
Height : 532 pixels
Display aspect ratio : 2.40:1
Frame rate mode : Constant
Frame rate : 25.000 FPS
Color space : YUV
Chroma subsampling : 4:2:0
Bit depth : 8 bits
Scan type : Progressive
Bits/(Pixel*Frame) : 0.151
Stream size : 1.77 GiB (91%)
Writing library : x264 core 142
Encoding settings : cabac=1 / ref=3 / deblock=1:0:0 / analyse=0x3:0x113 / me=hex / subme=7 / psy=1 / psy_rd=1.00:0.00 / mixed_ref=1 / me_range=16 / chroma_me=1 / trellis=1 / 8x8dct=1 / cqm=0 / deadzone=21,11 / fast_pskip=1 / chroma_qp_offset=-2 / threads=36 / lookahead_threads=4 / sliced_threads=0 / nr=0 / decimate=1 / interlaced=0 / bluray_compat=0 / constrained_intra=0 / bframes=6 / b_pyramid=2 / b_adapt=1 / b_bias=0 / direct=1 / weightb=1 / open_gop=0 / weightp=2 / keyint=50 / keyint_min=26 / scenecut=0 / intra_refresh=0 / rc_lookahead=40 / rc=2pass / mbtree=1 / bitrate=2569 / ratetol=1.0 / qcomp=0.60 / qpmin=0 / qpmax=69 / qpstep=4 / cplxblur=20.0 / qblur=0.5 / vbv_maxrate=3854 / vbv_bufsize=10279 / nal_hrd=none / filler=0 / ip_ratio=1.40 / aq=1:1.00
Language : English
Default : Yes
Forced : No

Audio
ID : 2
Format : AC-3
Format/Info : Audio Coding 3
Mode extension : CM (complete main)
Format settings, Endianness : Big
Codec ID : A_AC3
Duration : 1 h 41 min
Bit rate mode : Constant
Bit rate : 192 kb/s
Channel(s) : 2 channels
Channel positions : Front: L R
Sampling rate : 48.0 kHz
Frame rate : 31.250 FPS (1536 spf)
Compression mode : Lossy
Stream size : 139 MiB (7%)
Default : Yes
Forced : No
piratbit.pw



Скачать Селфипати через торрент http://i2.imageban.ru/out/2017/04/07/cd428dc5ad70f74003a2d0e99e2f65c6.jpg Скачать фильм Селфипати через торрент бесплантно в хорошем качестве Описание: Четверо парней оказались в полицейском участке, где им нужно доказать, что труп карлика обнаруженный после убойной вечеринки - не ... 6.1 10 14
Торрент: Зарегистрирован [2017-04-07 15:52] · скачан: 179 раз
Статус: T временная
Размер: 1.95 GB
Как cкачать? Как скачать Селфипати через торрент | qTorrent

28-11-2019 20:33  

Отключить всю рекламу на сайте

07-04-2017 16:13 Селфипати Скачать торрент  

Мда... тени незабытых предков был неплохим фильмом с неплохими для Украины спецэффектами, но это...
полная копия "Проект: X"...
бредовые неуместные шутки.
ИМХО 2\10 чисто за спецэффекты, коих тут валом, хоть и незаметныхpiratbit.pw



    Дорогой пользователь! Огромная просьба, поблагодарите релизера, оцените раздачу и оставьте свои комментарий, если Вы скачали Селфипати через торрент бесплатно! Внесите свою лепту в развитие PiratBit!
    Комментировать посты могут только пользователи прошедшие не сложную регистрацию
    Показать сообщения:    

    Селфипати через торрент
    Скачать бесплатно Селфипати
    Селфипати скачать торрент
    Селфипати смотреть онлайн
    Cкачать фильм Селфипати бесплатно
    Селфипати скачать торрент в хорошем качестве
    Селфипати смотреть онлайн бесплатно в хорошем качестве


    Вы не можете начинать темы
    Вы не можете отвечать на сообщения
    Вы не можете редактировать свои сообщения
    Вы не можете удалять свои сообщения
    Вы не можете голосовать в опросах
    Вы не можете прикреплять файлы к сообщениям
    Вы можете скачивать файлы