Ссылка на приватное зеркало нашего сайта всего за 1$. Внимание количество ограничено!!!

2 сезон

iTunes

iTunes

1

iTunes

iTunes

iTunes

WEBRip

iTunes

30
pack

Вам бонус

ВАЖНО

!!Акция!!

Alien_RageХит недели

RePack

Horizon Zero Dawn

ИГРА 18+

pack

RePack

jed

!!Акция!!

Alien_Rage

RePack

fifa19

RePack

Assassins Creed: Odyssey

RePack

NEED FOR SPEED™ PAYBACK

4 сезон

9 сезон

Бесстыжие 9 сезон

Все сериалы

все сериалы на PB.wtf

RePack

FAR CRY 5
  

Огни большой деревни (Илья Учитель) [2016, комедия, WEB-DL 1080p] Не требуется [Русский / iTunes] piratbit.pw

Огни большой деревни через торрент piratbit.pw

Размер: 2.84 GB | Добавлен: 3 года 5 мес. назад | Торрент скачан:404 раза
Скачать  

02-04-2017 19:58 Огни большой деревни Скачать торрент  


Огни большой деревни


ИНФОРМАЦИЯ:
Год выпуска:2016
Страна: Россия
Жанр: комедия
Продолжительность: 01:21:22
Перевод: Не требуется [Русский]
Режиссер: Илья Учитель

В Ролях:


Дмитрий Дюжев, Кирилл Фролов, Максим Емельянов, Анастасия Мытражик, Василий Кортуков, Юрий Быков, Тагир Рахимов, Карен Мартиросян, Кирилл Полухин, Анна Воркуева, Константин Сухарьков (режиссер на площадке)

ОПИСАНИЕ:
«Родина» в смертельной опасности. Ровно через неделю ее сравняют с землей. Спасти кинотеатр может только успешная премьера. За дело берется пара супергероев без суперспособностей. В их распоряжении - камера, девушка-ниндзя и Дмитрий Дюжев. Правда, он об этом еще не знает.

  • Мировая премьера:6 ноября 2016

    ТЕХ.ДАННЫЕ:
    Качество: WEB-DL 1080p
    Формат: MKV
    Видео: AVC, 1920x804 (2.40:1), 4604 kbps, 24 fps, 0,124 bpp
    Аудио: русский / AC3 / 5.1 / 48 kHz / 384 kbps / ||
    Навигация по главам: есть


    General
    Unique ID : 211908349165680415024417326341917180395 (0x9F6C10425900658F860AD12AD42301EB)
    Complete name : W:\Торенты\OGni.DerVni.2O17.O.WEB-DL.1O8Op.mkv
    Format : Matroska
    Format version : Version 2
    File size : 2.84 GiB
    Duration : 1 h 21 min
    Overall bit rate : 4 990 kb/s
    Encoded date : UTC 2017-04-02 18:13:24
    Writing application : mkvmerge v8.3.0 ('Over the Horizon') 64bit
    Writing library : libebml v1.3.1 + libmatroska v1.4.2

    Video
    ID : 1
    Format : AVC
    Format/Info : Advanced Video Codec
    Format profile : High@L4
    Format settings, CABAC : Yes
    Format settings, ReFrames : 5 frames
    Codec ID : V_MPEG4/ISO/AVC
    Duration : 1 h 21 min
    Bit rate : 4 605 kb/s
    Width : 1 920 pixels
    Height : 804 pixels
    Display aspect ratio : 2.40:1
    Frame rate mode : Constant
    Frame rate : 24.000 FPS
    Color space : YUV
    Chroma subsampling : 4:2:0
    Bit depth : 8 bits
    Scan type : Progressive
    Bits/(Pixel*Frame) : 0.124
    Stream size : 2.62 GiB (92%)
    Language : English
    Default : Yes
    Forced : No
    Color range : Limited
    Color primaries : BT.709
    Transfer characteristics : BT.709
    Matrix coefficients : BT.709

    Audio
    ID : 2
    Format : AC-3
    Format/Info : Audio Coding 3
    Mode extension : CM (complete main)
    Format settings, Endianness : Big
    Codec ID : A_AC3
    Duration : 1 h 21 min
    Bit rate mode : Constant
    Bit rate : 384 kb/s
    Channel(s) : 6 channels
    Channel positions : Front: L C R, Side: L R, LFE
    Sampling rate : 48.0 kHz
    Frame rate : 31.250 FPS (1536 spf)
    Compression mode : Lossy
    Stream size : 223 MiB (8%)
    Language : Russian
    Default : Yes
    Forced : No

    Menu
    00:00:00.000 : en:Глава 1
    00:05:46.958 : en:Глава 2
    00:10:02.749 : en:Глава 3
    00:16:29.707 : en:Глава 4
    00:21:05.040 : en:Глава 5
    00:24:44.165 : en:Глава 6
    00:30:13.665 : en:Глава 7
    00:36:20.831 : en:Глава 8
    00:41:29.581 : en:Глава 9
    00:46:50.914 : en:Глава 10
    00:53:53.539 : en:Глава 11
    01:00:46.747 : en:Глава 12
    01:07:35.788 : en:Глава 13
    01:13:09.204 : en:Глава 14
    Скриншоты:



    © Оформление by .::Ворон::.
    piratbit.pw



  • Скачать Огни большой деревни через торрент http://pic.kartinco.top/images/6/ordi9.jpg Скачать фильм Огни большой деревни через торрент бесплантно в хорошем качестве Е:«Родина» в смертельной опасности. Ровно через неделю ее сравняют с землей. Спасти кинотеатр может только успешная премьера. За дело ... 8.6 10 13
    Торрент: Зарегистрирован [2017-04-02 19:58] · скачан: 404 раз
    Статус: √ проверено
    Размер: 2.84 GB
    Как cкачать? Как скачать Огни большой деревни через торрент | qTorrent

    % Раздел Тема Автор DL S | L
    Наши новые фильмы 2016 [ 1.41 GB ] Огни большой деревни [2016 Россия WEB-DLRip-AVC от sokol_ok] sokol_ok Скачать
    2 | 0
    Наши новые фильмы 2016 [ 745 MB ] Огни большой деревни [2016 WEB-DLRip] bober100 Скачать
    1 | 0
    Наши новые фильмы 2016 [ 1.57 GB ] Огни большой деревни [2016 WEB-DLRip-AVC] bober100 Скачать
    1 | 0
    Наши новые фильмы 2016 [ 1.37 GB ] Огни большой деревни [2016 WEB-DLRip / ] Ворон Скачать
    1 | 0

    28-11-2019 20:33  

    Отключить всю рекламу на сайте

    03-04-2017 04:42 Огни большой деревни Скачать торрент  

    Зато как звучит "Мировая премьера"... piratbit.pw



    03-04-2017 15:27 Огни большой деревни Скачать торрент  

    На удивление хорошие отзывы о фильме на кинопоискеpiratbit.pw



    03-04-2017 17:52 Огни большой деревни Скачать торрент  

    Кал редкостный. Сколько можно снимать подобное га**о.piratbit.pw



    17-04-2017 13:57 Огни большой деревни Скачать торрент  

    Зря потраченное время. Фильм отстой...piratbit.pw



      Дорогой пользователь! Огромная просьба, поблагодарите релизера, оцените раздачу и оставьте свои комментарий, если Вы скачали Огни большой деревни через торрент бесплатно! Внесите свою лепту в развитие PiratBit!
      Комментировать посты могут только пользователи прошедшие не сложную регистрацию
      Показать сообщения:    

      Огни большой деревни через торрент
      Скачать бесплатно Огни большой деревни
      Огни большой деревни скачать торрент
      Огни большой деревни смотреть онлайн
      Cкачать фильм Огни большой деревни бесплатно
      Огни большой деревни скачать торрент в хорошем качестве
      Огни большой деревни смотреть онлайн бесплатно в хорошем качестве


      Вы не можете начинать темы
      Вы не можете отвечать на сообщения
      Вы не можете редактировать свои сообщения
      Вы не можете удалять свои сообщения
      Вы не можете голосовать в опросах
      Вы не можете прикреплять файлы к сообщениям
      Вы можете скачивать файлы