Ссылка на приватное зеркало нашего сайта всего за 1$. Внимание количество ограничено!!!

2 сезон

iTunes

1 сезон

1

iTunes

iTunes

iTunes

1 сезон

RePack

30

ИГРА 18+

pack

ВАЖНО

!!Акция!!

Alien_RageХит недели

RePack

MK11
pack

Забери бонус

RePack

jed

!!Акция!!

Alien_Rage

RePack

fifa19

RePack

Assassins Creed: Odyssey

RePack

NEED FOR SPEED™ PAYBACK

4 сезон

9 сезон

Бесстыжие 9 сезон

Все сериалы

все сериалы на PB.wtf

RePack

FAR CRY 5
  

Прекрасная мельничиха / La bella mugnaia (Марио Камерини) [1955 г., Комедия, мелодрама, DVDRip-AVC, Профессиональный (двухголосый)] от ExKinoRay piratbit.pw

Прекрасная мельничиха через торрент piratbit.pw

Размер: 2.34 GB | Добавлен: 3 года 7 мес. назад | Торрент скачан:50 раз
Скачать  

27-03-2017 19:00 Прекрасная мельничиха Скачать торрент  

Прекрасная мельничиха / La bella mugnaia
Год выпуска: 1955
Страна: Италия
Жанр: Комедия, мелодрама
Продолжительность: 01:27:44
Перевод: Профессиональный (двухголосый)

Режиссер: Марио Камерини

Премьера в мире: 27 октября 1955

rating

В ролях: Софи Лорен, Марчелло Мастроянни, Витторио Де Сика, Паоло Стоппа, Ивонн Сансон, Марио Пассанте, Карло Спозито, Вирджилио Риенто, Эльза Ваззолер, Пьетро Торди, Джанкарло Кобелли

Описание: Очаровательная Кармела, жена мельника Луки, привлекла внимание нового губернатора Неаполя. Чтобы заманить красотку в свою постель, хозяин города арестовал ее мужа, после чего намекнул ей, на каких условиях мельник будет выпущен на свободу. Кармела отправилась к мужу. Тем временем мельник сбежал из-под стражи, но дома застал лишь губернатора. Заподозрив самое худшее, он побежал в дом губернатора, чтобы в отместку обесчестить его жену…

Качество: DVDRip-AVC
Формат: MKV
Видео кодек: MPEG4
Аудио кодек: MP3
Видео: 3500 Кбит/с, 720x416@768x416, 25 кадров/сек
Аудио#1: Русский (MP3, 2 ch, 128 Кбит/с, 48 КГц)
Аудио#2: Итальянский (AC3, 2 ch, 192 Кбит/с, 48 КГц)
Релиз от:




raw [info]: 720x416p 16:15 @ 25/1 fps (cfr)
x264 [info]: using SAR=16/15
x264 [info]: using cpu capabilities: MMX2 SSE2Fast LZCNT
x264 [info]: profile High, level 4.1
x264 [info]: frame I:724 Avg QP:18.20 size: 55707
x264 [info]: frame P:27979 Avg QP:20.23 size: 31396
x264 [info]: frame B:102898 Avg QP:22.18 size: 13452
x264 [info]: consecutive B-frames: 1.7% 1.8% 16.2% 5.0% 2.6% 72.4% 0.3% 0.0% 0.0% 0.0% 0.0% 0.0% 0.0% 0.0% 0.0% 0.0% 0.1%
-----
Общее
Уникальный идентификатор : 253614832673396243003127354899585295045 (0xBECC70A7AEF18589AE5E71577A3BE2C5)
Полное имя : E:\La.bella.mugnaia.1955.DVDRip-AVC.ExKinoRay.mkv
Формат : Matroska
Версия формата : Version 2
Размер файла : 2,34 Гбайт
Продолжительность : 1 ч. 27 м.
Общий поток : 3822 Кбит/сек
Дата кодирования : UTC 2017-03-27 16:07:10
Программа кодирования : mkvmerge v7.8.0 ('River Man') 32bit built on Apr 3 2015 12:11:22
Библиотека кодирования : libebml v1.3.1 + libmatroska v1.4.2

Видео
Идентификатор : 1
Формат : AVC
Формат/Информация : Advanced Video Codec
Профиль формата : High@L4.1
Параметр CABAC формата : Да
Параметр ReFrames формата : 14 кадров
Идентификатор кодека : V_MPEG4/ISO/AVC
Продолжительность : 1 ч. 27 м.
Битрейт : 3500 Кбит/сек
Ширина : 720 пикселей
Высота : 416 пикселей
Соотношение сторон : 1,85:1
Режим частоты кадров : Постоянный
Частота кадров : 25,000 кадров/сек
Цветовое пространство : YUV
Субдискретизация насыщенности : 4:2:0
Битовая глубина : 8 бит
Тип развёртки : Прогрессивная
Бит/(Пиксели*Кадры) : 0.467
Размер потока : 2,10 Гбайт (90%)
Библиотека кодирования : x264 core 148 r2638 7599210
Настройки программы : cabac=1 / ref=14 / deblock=1:-2:-2 / analyse=0x3:0x133 / me=umh / subme=10 / psy=1 / psy_rd=1.05:0.15 / mixed_ref=1 / me_range=32 / chroma_me=1 / trellis=2 / 8x8dct=1 / cqm=0 / deadzone=21,11 / fast_pskip=0 / chroma_qp_offset=-3 / threads=4 / lookahead_threads=1 / sliced_threads=0 / nr=0 / decimate=0 / interlaced=0 / bluray_compat=0 / constrained_intra=0 / bframes=16 / b_pyramid=2 / b_adapt=2 / b_bias=0 / direct=3 / weightb=1 / open_gop=0 / weightp=2 / keyint=250 / keyint_min=25 / scenecut=40 / intra_refresh=0 / rc=2pass / mbtree=0 / bitrate=3500 / ratetol=1.0 / qcomp=0.60 / qpmin=0 / qpmax=69 / qpstep=4 / cplxblur=20.0 / qblur=0.5 / ip_ratio=1.40 / pb_ratio=1.30 / aq=1:1.00
Язык : English
Default : Да
Forced : Нет
Цветовой диапазон : Limited
Основные цвета : BT.601 NTSC
Характеристики трансфера : BT.601
Коэффициенты матрицы : BT.601

Аудио #1
Идентификатор : 2
Формат : MPEG Audio
Версия формата : Version 1
Профиль формата : Layer 3
Идентификатор кодека : A_MPEG/L3
Идентификатор кодека/Подсказка : MP3
Продолжительность : 1 ч. 27 м.
Вид битрейта : Постоянный
Битрейт : 128 Кбит/сек
Каналы : 2 канала
Частота : 48,0 КГц
Метод сжатия : С потерями
Размер потока : 80,3 Мбайт (3%)
Библиотека кодирования : LAME3.99r
Настройки программы : -m s -V 4 -q 2 -lowpass 17 -b 128
Язык : Russian
Default : Да
Forced : Нет

Аудио #2
Идентификатор : 3
Формат : AC-3
Формат/Информация : Audio Coding 3
Расширение режима : CM (complete main)
Параметр Endianness формата : Big
Идентификатор кодека : A_AC3
Продолжительность : 1 ч. 27 м.
Вид битрейта : Постоянный
Битрейт : 192 Кбит/сек
Каналы : 2 канала
Расположение каналов : Front: L R
Частота : 48,0 КГц
Частота кадров : 31,250 кадров/сек (1536 spf)
Метод сжатия : С потерями
Размер потока : 120 Мбайт (5%)
Язык : Italian
Default : Нет
Forced : Нет

piratbit.pw



Скачать Прекрасная мельничиха через торрент http://s019.radikal.ru/i621/1703/de/4b8183e3ed23.jpg Скачать фильм Прекрасная мельничиха через торрент бесплантно в хорошем качестве Описание: Очаровательная Кармела, жена мельника Луки, привлекла внимание нового губернатора Неаполя. Чтобы заманить красотку в свою ... 10 10 1
Info! Золотая раздача, скачанное не засчитывается.
Торрент: Зарегистрирован [2017-03-27 19:00] · скачан: 50 раз
Статус: √ проверено
Размер: 2.34 GB
Как cкачать? Как скачать Прекрасная мельничиха через торрент | qTorrent

28-11-2019 20:33  

Отключить всю рекламу на сайте

    Дорогой пользователь! Огромная просьба, поблагодарите релизера, оцените раздачу и оставьте свои комментарий, если Вы скачали Прекрасная мельничиха через торрент бесплатно! Внесите свою лепту в развитие PiratBit!
    Комментировать посты могут только пользователи прошедшие не сложную регистрацию
    Показать сообщения:    

    Прекрасная мельничиха через торрент
    Скачать бесплатно Прекрасная мельничиха
    Прекрасная мельничиха скачать торрент
    Прекрасная мельничиха смотреть онлайн
    Cкачать фильм Прекрасная мельничиха бесплатно
    Прекрасная мельничиха скачать торрент в хорошем качестве
    Прекрасная мельничиха смотреть онлайн бесплатно в хорошем качестве


    Вы не можете начинать темы
    Вы не можете отвечать на сообщения
    Вы не можете редактировать свои сообщения
    Вы не можете удалять свои сообщения
    Вы не можете голосовать в опросах
    Вы не можете прикреплять файлы к сообщениям
    Вы можете скачивать файлы