Ссылка на приватное зеркало всего за 1$. Внимание количество ограничено!!!

iTunes

iTunes

iTunes

1

iTunes

iTunes

iTunes

iTunes

iTunes

30
pack

Новость дня

ВАЖНО

!!Акция!!

Alien_RageХит недели

RePack

Resident Evil 21

ИГРА 18+

pack

RePack

jed

!!Акция!!

Alien_Rage

RePack

fifa19

RePack

Assassins Creed: Odyssey

RePack

NEED FOR SPEED™ PAYBACK

4 сезон

9 сезон

Бесстыжие 9 сезон

Все сериалы

все сериалы на PB.wtf

RePack

FAR CRY 5
  

Миссия невыполнима: Племя изгоев / Mission: Impossible - Rogue Nation (Кристофер МакКуорри) [2015, боевик, триллер, приключения, UHD WEBRip 2160p] 2xDUB (rus, ukr) [Лицензия] piratbit.pw

Миссия невыполнима: Племя изгоев через торрент piratbit.pw

Размер: 16.07 GB | Добавлен: 3 года назад | Торрент скачан:140 раз
Скачать  

16-03-2017 10:24 Миссия невыполнима: Племя изгоев Скачать торрент  

Миссия невыполнима: Племя изгоев /
Mission: Impossible - Rogue Nation
Год выпуска: 2015
Страна: США
Жанр: боевик, триллер, приключения
Продолжительность: 02:11:33
Перевод: Дубляж - [Лицензия]
Субтитры: русские, украинские, английские

Режиссер: Кристофер МакКуорри

rating

В ролях:

Том Круз, Ребекка Фергюсон, Саймон Пегг, Джереми Реннер, Винг Реймз, Шон Харрис, Алек Болдуин, Саймон МакБерни, Йенс Хультен, Том Холландер

Описание:

Когда ОМН распускают, и Итан Хант остается не у дел, его команда неожиданно сталкивается с разветвленной международной сетью высокопрофессиональных спецагентов — Синдикатом. Это «племя изгоев» одержимо идеей установления нового мирового порядка и планирует серию разрушительных терактов. Итан и компания объединяются с дискредитированным британским агентом Ильзой Фауст и приступают к своей самой невыполнимой миссии…


Качество: UHD WEBRip 2160p
Формат: MKV
Видео кодек: H.265
Аудио кодек: AC3

Видео: 3840x2160p (16:9), 23.976 fps, MPEG4 AVC (x265), High@L5.1 ~16.2 Mbps avg, 0.081 bit/pixel
Аудио#1: Русский 48 kHz, AC3, 6 ch ~ 640 kbps [Профессиональный (полное дублирование)]
Аудио#2: Украинский 48 kHz, AC3, 6 ch ~ 448 kbps [Профессиональный (полное дублирование)]
Аудио#3: Английский 48 kHz, AC3, 2 ch ~ 224 kbps [Оригинал]
скриншот  скриншот  скриншот  скриншот  

Общее
Уникальный идентификатор : 196653573242364934350084232264796931980 (0x93F219BCD8C11E7C942D2BDD0051078C)
Полное имя : F:\TREKER\ТЕМР\mission_mpossible_pogue_nation_.mkv
Формат : Matroska
Версия формата : Version 2
Размер файла : 16,1 Гбайт
Продолжительность : 2 ч. 11 м.
Режим общего битрейта : Переменный
Общий поток : 17,5 Мбит/сек
Название фильма : mission_mpossible_pogue_nation_
Дата кодирования : UTC 2016-06-25 17:49:58
Программа кодирования : mkvmerge v4.0.0 ('The Stars were mine') сборка от Jun 6 2010 16:18:42
Библиотека кодирования : libebml v1.0.0 + libmatroska v1.0.0
Attachements : cover.jpg

Видео
Идентификатор : 1
Формат : AVC
Формат/Информация : Advanced Video Codec
Профиль формата : High@L5.1
Параметр CABAC формата : Да
Параметр ReFrames формата : 3 кадра
Идентификатор кодека : V_MPEG4/ISO/AVC
Продолжительность : 2 ч. 11 м.
Вид битрейта : Переменный
Битрейт : 16,2 Мбит/сек
Максимальный битрейт : 20,2 Мбит/сек
Ширина : 3840 пикселей
Высота : 2160 пикселей
Соотношение сторон : 16:9
Режим частоты кадров : Постоянный
Частота кадров : 23,976 кадра/сек
Цветовое пространство : YUV
Субдискретизация насыщенности : 4:2:0
Битовая глубина : 8 бит
Тип развёртки : Прогрессивная
Бит/(Пиксели*Кадры) : 0.081
Размер потока : 14,5 Гбайт (91%)
Заголовок : mission_mpossible_pogue_nation_
Библиотека кодирования : x264 core 148 r2579 73ae2d1
Настройки программы : cabac=1 / ref=3 / deblock=1:-1:-1 / analyse=0x3:0x113 / me=umh / subme=11 / psy=0 / mixed_ref=1 / me_range=128 / chroma_me=1 / trellis=2 / 8x8dct=1 / cqm=0 / deadzone=0,0 / fast_pskip=1 / chroma_qp_offset=3 / threads=8 / lookahead_threads=1 / sliced_threads=0 / nr=0 / decimate=0 / interlaced=0 / bluray_compat=0 / constrained_intra=0 / bframes=3 / b_pyramid=0 / b_adapt=2 / b_bias=100 / direct=1 / weightb=1 / open_gop=0 / weightp=2 / keyint=48 / keyint_min=25 / scenecut=0 / intra_refresh=0 / rc_lookahead=48 / rc=abr / mbtree=1 / bitrate=16200 / ratetol=0.9 / qcomp=0.60 / qpmin=1 / qpmax=48 / qpstep=2 / vbv_maxrate=20250 / vbv_bufsize=40500 / nal_hrd=vbr / filler=0 / ip_ratio=1.10 / aq=1:0.00
Язык : English
Default : Нет
Forced : Нет

Аудио #1
Идентификатор : 2
Формат : AC-3
Формат/Информация : Audio Coding 3
Расширение режима : CM (complete main)
Параметр Endianness формата : Big
Идентификатор кодека : A_AC3
Продолжительность : 2 ч. 11 м.
Вид битрейта : Постоянный
Битрейт : 640 Кбит/сек
Каналы : 6 каналов
Расположение каналов : Front: L C R, Side: L R, LFE
Частота : 48,0 КГц
Метод сжатия : С потерями
Размер потока : 602 Мбайт (4%)
Заголовок : Профессиональный (полное дублирование)
Язык : Russian
Default : Нет
Forced : Нет

Аудио #2
Идентификатор : 3
Формат : AC-3
Формат/Информация : Audio Coding 3
Расширение режима : CM (complete main)
Параметр Endianness формата : Big
Идентификатор кодека : A_AC3
Продолжительность : 2 ч. 11 м.
Вид битрейта : Постоянный
Битрейт : 448 Кбит/сек
Каналы : 6 каналов
Расположение каналов : Front: L C R, Side: L R, LFE
Частота : 48,0 КГц
Метод сжатия : С потерями
Размер потока : 422 Мбайт (3%)
Заголовок : Профессиональный (полное дублирование)
Язык : Ukrainian
Default : Нет
Forced : Нет

Аудио #3
Идентификатор : 4
Формат : AC-3
Формат/Информация : Audio Coding 3
Расширение режима : CM (complete main)
Параметр Endianness формата : Big
Идентификатор кодека : A_AC3
Продолжительность : 2 ч. 11 м.
Вид битрейта : Постоянный
Битрейт : 224 Кбит/сек
Каналы : 2 канала
Расположение каналов : Front: L R
Частота : 48,0 КГц
Метод сжатия : С потерями
Размер потока : 211 Мбайт (1%)
Заголовок : Оригинал
Язык : English
Default : Нет
Forced : Нет

Текст #1
Идентификатор : 5
Формат : UTF-8
Идентификатор кодека : S_TEXT/UTF8
Идентификатор кодека/Информация : UTF-8 Plain Text
Язык : Russian
Default : Нет
Forced : Нет

Текст #2
Идентификатор : 6
Формат : UTF-8
Идентификатор кодека : S_TEXT/UTF8
Идентификатор кодека/Информация : UTF-8 Plain Text
Язык : Russian
Default : Нет
Forced : Нет

Текст #3
Идентификатор : 7
Формат : UTF-8
Идентификатор кодека : S_TEXT/UTF8
Идентификатор кодека/Информация : UTF-8 Plain Text
Язык : Ukrainian
Default : Нет
Forced : Нет

Текст #4
Идентификатор : 8
Формат : UTF-8
Идентификатор кодека : S_TEXT/UTF8
Идентификатор кодека/Информация : UTF-8 Plain Text
Язык : English
Default : Нет
Forced : Нет

Текст #5
Идентификатор : 9
Формат : UTF-8
Идентификатор кодека : S_TEXT/UTF8
Идентификатор кодека/Информация : UTF-8 Plain Text
Язык : English
Default : Нет
Forced : Нет

Текст #6
Идентификатор : 10
Формат : UTF-8
Идентификатор кодека : S_TEXT/UTF8
Идентификатор кодека/Информация : UTF-8 Plain Text
Заголовок : SDH
Язык : English
Default : Нет
Forced : Нет

piratbit.pw



Скачать Миссия невыполнима: Племя изгоев через торрент http://s019.radikal.ru/i644/1606/9e/9a3c7fdfddb6.jpg Скачать фильм Миссия невыполнима: Племя изгоев через торрент бесплантно в хорошем качестве Описание: Когда ОМН распускают, и Итан Хант остается не у дел, его команда неожиданно сталкивается с разветвленной международной сетью ... 9.9 10 12
Info! Золотая раздача, скачанное не засчитывается.
Торрент: Зарегистрирован [2017-03-16 10:24] · скачан: 140 раз
Статус: √ проверено
Размер: 16.07 GB
Как cкачать? Как скачать Миссия невыполнима: Племя изгоев через торрент | qTorrent

% Раздел Тема Автор DL S | L
Ultra HD (UHD: 2K, 4K, 8K) — видео сверхвысокой чёткости [ 58.37 GB ] Миссия невыполнима: Племя изгоев / Mission: Impossible - Rogue Nation [2015 UHD Blu-Ray 2160p] DUB [HDR + Dolby Vision] sheker187 Скачать
1 | 0
Ultra HD (UHD: 2K, 4K, 8K) — видео сверхвысокой чёткости [ 51.28 GB ] Миссия невыполнима: Племя изгоев / Mission: Impossible - Rogue Nation [2015 UHD BDRemux 2160p] DUB + AVO [Ю. Живов] sheker187 Скачать
1 | 0
Фильмы с авторской озвучкой [ 1.47 GB ] Миссия невыполнима: Племя изгоев / Mission: Impossible - Rogue Nation [2015 BDRip] [AVO] killermax2013 Скачать
1 | 0
Фильмы 2015 [DVDrip, WEB-DLRip, HDrip] [ 1.46 GB ] Миссия невыполнима: Племя изгоев / Mission: Impossible - Rogue Nation [2015 Гонконг Китай BDRip] DUB Twi7ter Скачать
2 | 0
Фильмы [HD 720p, 1080p] (Хороший звук DUB, MVO) [ 5.72 GB ] Миссия невыполнима: Племя изгоев / Mission: Impossible - Rogue Nation [2015 BDRip 720p] DUB potroks Скачать
1 | 0
Фильмы с авторской озвучкой [ 1.28 GB ] Миссия невыполнима: Племя изгоев / Mission: Impossible - Rogue Nation [2015 HDRip-AVC] [AVO] killermax2013 Скачать
1 | 0
Фильмы [HD 720p, 1080p] (Хороший звук DUB, MVO) [ 7.94 GB ] Миссия невыполнима: Племя изгоев / Mission: Impossible - Rogue Nation [2015 BDRip 720p от _denis_100 / NNNB] - [] _denis_100 Скачать
1 | 0

28-11-2019 20:33  

Отключить всю рекламу на сайте

    Дорогой пользователь! Огромная просьба, поблагодарите релизера, оцените раздачу и оставьте свои комментарий, если Вы скачали Миссия невыполнима: Племя изгоев через торрент бесплатно! Внесите свою лепту в развитие PiratBit!
    Комментировать посты могут только пользователи прошедшие не сложную регистрацию
    Показать сообщения:    

    Миссия невыполнима: Племя изгоев через торрент
    Скачать бесплатно Миссия невыполнима: Племя изгоев
    Миссия невыполнима: Племя изгоев скачать торрент
    Миссия невыполнима: Племя изгоев смотреть онлайн
    Cкачать фильм Миссия невыполнима: Племя изгоев бесплатно
    Миссия невыполнима: Племя изгоев скачать торрент в хорошем качестве
    Миссия невыполнима: Племя изгоев смотреть онлайн бесплатно в хорошем качестве


    Вы не можете начинать темы
    Вы не можете отвечать на сообщения
    Вы не можете редактировать свои сообщения
    Вы не можете удалять свои сообщения
    Вы не можете голосовать в опросах
    Вы не можете прикреплять файлы к сообщениям
    Вы можете скачивать файлы