Marvel's Avengers Deluxe Edition (супер цена) 159р. Внимание количество ограничено!!!

2 сезон

iTunes

iTunes

1

iTunes

iTunes

iTunes

WEBRip

iTunes

30
pack

Новость дня

ВАЖНО

!!Акция!!

Alien_RageХит недели

RePack

Horizon Zero Dawn

ИГРА 18+

pack

RePack

jed

!!Акция!!

Alien_Rage

RePack

fifa19

RePack

Assassins Creed: Odyssey

RePack

NEED FOR SPEED™ PAYBACK

4 сезон

9 сезон

Бесстыжие 9 сезон

Все сериалы

все сериалы на PB.wtf

RePack

FAR CRY 5
  

Прячься! (Джонни О’Райлли ) [2010, триллер, WEB-DLRip 1080p], Не требуется [Русский] piratbit.pw

Прячься! через торрент piratbit.pw

Размер: 1.19 GB | Добавлен: 3 года 6 мес. назад | Торрент скачан:119 раз
Скачать  

06-03-2017 11:44 Прячься! Скачать торрент  

Прячься!

Год выпуска: 2010
Страна: Россия, Германия
Жанр: триллер

Продолжительность: 01:19:51
Перевод: Не требуется [Русский]
Режиссер: Джонни О’Райлли
В ролях: Петр Логачев (Ромаш), Владимир Гусев (Иванов), Сергей Гармаш (Дроздов), Алексей Гуськов (Андрей), Антон Шагин (Слава), Сергей Юшкевич (Вадим), Марина Александрова (Ирина), Егор Пазенко (Сергей), Кирилл Бурдихин (криминалист 1), Андрей Пешеходько (криминалист 1), Денис Гусев (маленький Ромаш)
Описание:
На затерянной высоко в горах метеостанции несут службу несколько человек. Однажды они перестают выходить на связь, руководство высылает на станцию спасателей, которые находят распахнутые настежь двери, еще теплые угли в котельной, неработающую радиостанцию - и никого.
Подозреваются все, кто находился на станции: двое метеорологов с безупречным послужным списком и странными увлечениями: один помешан на поисках снежного человека, другой часами просиживает над сооружением из спичек копий памятников архитектуры; их помощник 19-летний Ромаш, умеющий исчезать и прятаться так, что никто не может найти; а так же появившиеся накануне в окрестностях станции двое спелеологов-любителей: красавица Ирина и ее муж Вадим.

Качество: WEB-DLRip 1080p
Формат: MKV
Видео: AVC, 1920x1080 (16:9), 1940 kbps, 25 fps, 0,037 bpp
Аудио: AC3 / 2.0 / 44 kHz / 192 kbps /

General
Unique ID Прячься! (2010).mkv
Format : Matroska
Format version : Version 4 / Version 2
File size : 1.19 GiB
Duration : 1 h 19 min
Overall bit rate : 2 134 kb/s
Encoded date : UTC 2017-03-04 11:13:28
Writing application : mkvmerge v9.9.0 ('Pick Up') 64bit
Writing library : libebml v1.3.4 + libmatroska v1.4.5 / Lavf57.25.100

Video
ID : 1
Format : AVC
Format/Info : Advanced Video Codec
Format profile : High@L4
Format settings, CABAC : Yes
Format settings, ReFrames : 3 frames
Codec ID : V_MPEG4/ISO/AVC
Duration : 1 h 19 min
Bit rate : 1 940 kb/s
Width : 1 920 pixels
Height : 1 080 pixels
Display aspect ratio : 16:9
Frame rate mode : Constant
Frame rate : 25.000 FPS
Color space : YUV
Chroma subsampling : 4:2:0
Bit depth : 8 bits
Scan type : Progressive
Bits/(Pixel*Frame) : 0.037
Stream size : 1.08 GiB (91%)
Default : Yes
Forced : No

Audio
ID : 2
Format : AC-3
Format/Info : Audio Coding 3
Mode extension : CM (complete main)
Format settings, Endianness : Big
Codec ID : A_AC3
Duration : 1 h 19 min
Bit rate mode : Constant
Bit rate : 192 kb/s
Channel(s) : 2 channels
Channel positions : Front: L R
Sampling rate : 44.1 kHz
Frame rate : 28.711 FPS (1536 spf)
Compression mode : Lossy
Delay relative to video : -40 ms
Stream size : 110 MiB (9%)
Default : Yes
Forced : No
piratbit.pw



Скачать Прячься! через торрент http://i3.imageban.ru/out/2017/03/06/7248431f9ebc4c3f035f88c9bf25db45.jpg Скачать фильм Прячься! через торрент бесплантно в хорошем качестве Описание: На затерянной высоко в горах метеостанции несут службу несколько человек. Однажды они перестают выходить на связь, руководство ... 10 10 7
Торрент: Зарегистрирован [2017-03-06 11:44] · скачан: 119 раз
Статус: √ проверено
Размер: 1.19 GB
Как cкачать? Как скачать Прячься! через торрент | qTorrent

% Раздел Тема Автор DL S | L
T Фильмы (мультфильмы) cо спонсором показа (Новинки AVI/MKV) [ 1.29 GB ] Прячься на свету / Hide in the Light [2018 WEB-DLRip Любительский ] oleg8 Скачать
1 | 0
Наши фильмы 2010-2011 [ 1.26 GB ] Прячься! / Pryachsya! [2010 ... DVDRip] vadimkarajan Скачать
1 | 0
Наши фильмы 2010-2011 [ 739 MB ] Прячься [2010 DVDRip] Maks_zm Скачать
1 | 0
Наши фильмы 2010-2011 [ 1.36 GB ] Прячься / Pryachsya [2010 DVDRip] kycher1972 Скачать
1 | 0

28-11-2019 20:33  

Отключить всю рекламу на сайте

06-03-2017 15:44 Прячься! Скачать торрент  

Одни и те же хари, даже смотреть не хочется.piratbit.pw



    Дорогой пользователь! Огромная просьба, поблагодарите релизера, оцените раздачу и оставьте свои комментарий, если Вы скачали Прячься! через торрент бесплатно! Внесите свою лепту в развитие PiratBit!
    Комментировать посты могут только пользователи прошедшие не сложную регистрацию
    Показать сообщения:    

    Прячься! через торрент
    Скачать бесплатно Прячься!
    Прячься! скачать торрент
    Прячься! смотреть онлайн
    Cкачать фильм Прячься! бесплатно
    Прячься! скачать торрент в хорошем качестве
    Прячься! смотреть онлайн бесплатно в хорошем качестве


    Вы не можете начинать темы
    Вы не можете отвечать на сообщения
    Вы не можете редактировать свои сообщения
    Вы не можете удалять свои сообщения
    Вы не можете голосовать в опросах
    Вы не можете прикреплять файлы к сообщениям
    Вы можете скачивать файлы