Ссылка на приватное зеркало нашего сайта всего за 1$. Внимание количество ограничено!!!

2 сезон

iTunes

iTunes

1

iTunes

iTunes

iTunes

WEBRip

iTunes

30
pack

Вам бонус

ВАЖНО

!!Акция!!

Alien_RageХит недели

RePack

Horizon Zero Dawn

ИГРА 18+

pack

RePack

jed

!!Акция!!

Alien_Rage

RePack

fifa19

RePack

Assassins Creed: Odyssey

RePack

NEED FOR SPEED™ PAYBACK

4 сезон

9 сезон

Бесстыжие 9 сезон

Все сериалы

все сериалы на PB.wtf

RePack

FAR CRY 5
  

Москва – Лопушки (Юрий Морозов ) [2014, мелодрама, комедия, WEB-DLRip 720p], Не требуется [Русский] piratbit.pw

Москва – Лопушки через торрент piratbit.pw

Размер: 1.36 GB | Добавлен: 3 года 6 мес. назад | Торрент скачан:164 раза
Скачать  

06-03-2017 07:25 Москва – Лопушки Скачать торрент  

Москва – Лопушки

Год выпуска: 2014
Страна: Россия
Жанр: мелодрама, комедия
Продолжительность: 01:28:43
Перевод: Не требуется [Русский]
Режиссер: Юрий Морозов
В ролях: Настя Задорожная (Полина Порываева), Алла Юганова (Маша), Виталий Альшанский (Гришка), Елена Мольченко (Ангелина Петровна, мать Кости), Дмитрий Наумов (Никита), Алина Бабак (Светка), Мария Кунах (Люська), Эрик Дик (сын Кости), Женя Хомжукова (дочка Кости), Александр Волков (Егор), Алексей Сидоровский (коммерсант), Николай Иванов (Костя, участковый)
Описание:
Две сестры — две полные противоположности. Полина — городская «фифа», работающая в крупном книжном издательстве. Маша — деревенская простушка, которая целыми днями возится в огороде, готовя на продажу заезжающим коммерсантам фермерские продукты. Жених Полины — ее босс, видный бизнесмен. Ухажер Маши — Вася, работяга и рубаха-парень.
Все меняется в одночасье, когда в издательство к Полине заявляется жена ее босса, с которой он все как-то забывал развестись, и разом лишает Полину и жениха, и работы. Машина тихая жизнь в Лопушках круто переворачивается, когда скупщики продуктов ставят деревенским условие: либо селяне вдвое снижают цены, либо у них вообще не будут ничего покупать.
Маша и Полина меняются местами: Полина мчится в деревню зализывать любовные раны, Маша рвется в Москву самостоятельно налаживать поставку продукции в город, чтобы не прогореть на процентах от посредников.

Качество: WEB-DLRip 720p
Формат: MKV
Видео: AVC, 1280x720 (16:9), 2000 kbps, 25 fps, 0,087 bpp
Аудио: AC3 / 2.0 / 48 kHz / 192 kbps /

General
Unique ID Москва – Лопушки.2014.720p.mkv
Format : Matroska
Format version : Version 2
File size : 1.36 GiB
Duration : 1 h 28 min
Overall bit rate : 2 193 kb/s
Encoded date : UTC 2017-01-08 17:06:41
Writing application : mkvmerge v6.1.0 ('Old Devil') built on Mar 4 2013 09:10:42
Writing library : libebml v1.3.0 + libmatroska v1.4.0

Video
ID : 1
Format : AVC
Format/Info : Advanced Video Codec
Format profile : High@L3.1
Format settings, CABAC : Yes
Format settings, ReFrames : 3 frames
Codec ID : V_MPEG4/ISO/AVC
Duration : 1 h 28 min
Bit rate : 2 000 kb/s
Width : 1 280 pixels
Height : 720 pixels
Display aspect ratio : 16:9
Frame rate mode : Constant
Frame rate : 25.000 FPS
Color space : YUV
Chroma subsampling : 4:2:0
Bit depth : 8 bits
Scan type : Progressive
Bits/(Pixel*Frame) : 0.087
Stream size : 1.21 GiB (89%)
Writing library : x264 core 120
Encoding settings : cabac=1 / ref=3 / deblock=1:0:0 / analyse=0x3:0x133 / me=hex / subme=6 / psy=1 / psy_rd=1.00:0.00 / mixed_ref=0 / me_range=16 / chroma_me=1 / trellis=1 / 8x8dct=1 / cqm=0 / deadzone=21,11 / fast_pskip=0 / chroma_qp_offset=-2 / threads=12 / sliced_threads=0 / nr=0 / decimate=1 / interlaced=0 / bluray_compat=0 / constrained_intra=0 / bframes=3 / b_pyramid=1 / b_adapt=2 / b_bias=0 / direct=1 / weightb=1 / open_gop=0 / weightp=2 / keyint=96 / keyint_min=49 / scenecut=0 / intra_refresh=0 / rc_lookahead=40 / rc=2pass / mbtree=1 / bitrate=2000 / ratetol=1.0 / qcomp=0.60 / qpmin=3 / qpmax=69 / qpstep=4 / cplxblur=20.0 / qblur=0.5 / ip_ratio=1.40 / aq=1:1.00
Default : Yes
Forced : No
Color range : Limited
Color primaries : BT.709
Transfer characteristics : BT.709
Matrix coefficients : BT.709

Audio
ID : 2
Format : AC-3
Format/Info : Audio Coding 3
Mode extension : CM (complete main)
Format settings, Endianness : Big
Codec ID : A_AC3
Duration : 1 h 28 min
Bit rate mode : Constant
Bit rate : 192 kb/s
Channel(s) : 2 channels
Channel positions : Front: L R
Sampling rate : 48.0 kHz
Frame rate : 31.250 FPS (1536 spf)
Compression mode : Lossy
Stream size : 122 MiB (9%)
Default : Yes
Forced : No
piratbit.pw



Скачать Москва – Лопушки через торрент http://i1.imageban.ru/out/2017/03/06/5e09e052e5950b506b846a35f47ef029.jpg Скачать фильм Москва – Лопушки через торрент бесплантно в хорошем качестве Описание: Две сестры — две полные противоположности. Полина — городская «фифа», работающая в крупном книжном издательстве. Маша — ... 10 10 4
Торрент: Зарегистрирован [2017-03-06 07:25] · скачан: 164 раз
Статус: √ проверено
Размер: 1.36 GB
Как cкачать? Как скачать Москва – Лопушки через торрент | qTorrent

% Раздел Тема Автор DL S | L
Наши новые фильмы 2014 [ 1.36 GB ] Москва – Лопушки [2014 HDTVRip Оригинальный] Ворон Скачать
1 | 0

28-11-2019 20:33  

Отключить всю рекламу на сайте

18-03-2017 17:51 Москва – Лопушки Скачать торрент  

Лёгкая, приятная и смешная история. Таких фильмов в нашей жизни должно быть больше.piratbit.pw



    Дорогой пользователь! Огромная просьба, поблагодарите релизера, оцените раздачу и оставьте свои комментарий, если Вы скачали Москва – Лопушки через торрент бесплатно! Внесите свою лепту в развитие PiratBit!
    Комментировать посты могут только пользователи прошедшие не сложную регистрацию
    Показать сообщения:    

    Москва – Лопушки через торрент
    Скачать бесплатно Москва – Лопушки
    Москва – Лопушки скачать торрент
    Москва – Лопушки смотреть онлайн
    Cкачать фильм Москва – Лопушки бесплатно
    Москва – Лопушки скачать торрент в хорошем качестве
    Москва – Лопушки смотреть онлайн бесплатно в хорошем качестве


    Вы не можете начинать темы
    Вы не можете отвечать на сообщения
    Вы не можете редактировать свои сообщения
    Вы не можете удалять свои сообщения
    Вы не можете голосовать в опросах
    Вы не можете прикреплять файлы к сообщениям
    Вы можете скачивать файлы