Ссылка на приватное зеркало нашего сайта всего за 1$. Внимание количество ограничено!!!

2 сезон

iTunes

1 сезон

1

2 сезон

2 сезон

iTunes

1 сезон

RePack

30

Новинка

ВАЖНО

ИГРА 18+

pack

RePack

MK11
pack

Забери бонус

RePack

jed

!!Акция!!

Alien_Rage

RePack

fifa19

RePack

Assassins Creed: Odyssey

RePack

NEED FOR SPEED™ PAYBACK

4 сезон

9 сезон

Бесстыжие 9 сезон

Все сериалы

все сериалы на PB.wtf

RePack

FAR CRY 5
  

Песочник / Piper (Алан Барилларо) [2016, мультфильм, короткометражка, семейный, BDRip 1080p] piratbit.pw

Песочник через торрент piratbit.pw

Размер: 210 MB | Добавлен: 3 года 8 мес. назад | Торрент скачан:72 раза
Скачать  

04-03-2017 08:20 Песочник Скачать торрент  

Песочник / PiperГод выпуска: 2016
Страна: США
Жанр: мультфильм, короткометражка, семейный
Продолжительность: 00:06:05
Перевод: Не требуется
Субтитры: отсутствуют

Режиссер: Алан Барилларо

rating

Описание:

Маленькому птенцу предстоит преодолеть свои страхи, чтобы научиться добывать еду и увидеть красоту окружающего мира.

Качество
: BDRip 1080p
Формат: MKV
Видео кодек: H.264
Аудио кодек: AC3

Видео: 1920x1080 (16:9), 23.976 fps, AVC MPEG-4 (x264), High@L4.1, ~4192 kbps avg, 0.084 bit/pixel
Аудио#1: 48 kHz, AC3 Dolby Digital, 6 ch, 640 kbps
бщее
Полное имя : Песочник. - Piper.(2016).1080p.BDRip.АС3.mkv
Формат : Matroska
Размер файла : 210 Мбайт
Продолжительность : 6 м. 5 с.
Общий поток : 4828 Кбит/сек
Дата кодирования : UTC 2016-11-01 19:47:30
Программа кодирования : mkvmerge v7.3.0 ('Nouages') 32bit built on Oct 22 2014 18:44:01
Библиотека кодирования : libebml v1.3.0 + libmatroska v1.4.1

Видео
Идентификатор : 1
Формат : AVC
Формат/Информация : Advanced Video Codec
Профиль формата : High@L4.1
Параметр CABAC формата : Да
Параметр ReFrames формата : 4 кадры
Идентификатор кодека : V_MPEG4/ISO/AVC
Продолжительность : 6 м. 5 с.
Вид битрейта : Переменный
Битрейт : 4192 Кбит/сек
Максимальный битрейт : 62,5 Мбит/сек
Ширина : 1920 пикс.
Высота : 1080 пикс.
Соотношение сторон : 16:9
Частота кадров : 23,976 кадр/сек
Цветовое пространство : YUV
Подвыборка цветности : 4:2:0
Битовая глубина : 8 бит
Тип развёртки : Прогрессивная
Бит/(Пиксели*Кадры) : 0.084
Размер потока : 178 Мбайт (85%)
Библиотека кодирования : x264 core 130 r2273 b3065e6
Настройки программы : cabac=1 / ref=4 / deblock=1:-3:-3 / analyse=0x3:0x113 / me=umh / subme=11 / psy=1 / psy_rd=1.00:0.00 / mixed_ref=1 / me_range=32 / chroma_me=1 / trellis=2 / 8x8dct=1 / cqm=0 / deadzone=21,11 / fast_pskip=1 / chroma_qp_offset=-2 / threads=12 / lookahead_threads=1 / sliced_threads=0 / nr=0 / decimate=1 / interlaced=0 / bluray_compat=0 / constrained_intra=0 / bframes=5 / b_pyramid=2 / b_adapt=1 / b_bias=0 / direct=3 / weightb=1 / open_gop=0 / weightp=2 / keyint=240 / keyint_min=23 / scenecut=40 / intra_refresh=0 / rc_lookahead=80 / rc=2pass / mbtree=1 / bitrate=4192 / ratetol=1.0 / qcomp=0.60 / qpmin=0 / qpmax=51 / qpstep=4 / cplxblur=20.0 / qblur=0.5 / vbv_maxrate=62500 / vbv_bufsize=78125 / nal_hrd=vbr / ip_ratio=1.40 / aq=2:1.00
Язык : English

Аудио
Идентификатор : 2
Формат : AC-3
Формат/Информация : Audio Coding 3
Расширение режима : CM (complete main)
Идентификатор кодека : A_AC3
Продолжительность : 6 м. 5 с.
Вид битрейта : Постоянный
Битрейт : 640 Кбит/сек
Канал(ы) : 6 канала(ов)
Расположение каналов : Front: L C R, Side: L R, LFE
Частота : 48,0 КГц
Битовая глубина : 16 бит
Метод сжатия : С потерями
Размер потока : 27,9 Мбайт (13%)
Язык : English
скриншот   скриншот   скриншот   скриншот   скриншот  
piratbit.pw



Скачать Песочник через торрент http://s50.radikal.ru/i129/1703/e5/8ff49a8b3f75.jpg Скачать фильм Песочник через торрент бесплантно в хорошем качестве Описание: Маленькому птенцу предстоит преодолеть свои страхи, чтобы научиться добывать еду и увидеть красоту окружающего мира.Качество: ... 10 10 9
Торрент: Зарегистрирован [2017-03-04 08:20] · скачан: 72 раз
Статус: √ проверено
Размер: 210 MB
Как cкачать? Как скачать Песочник через торрент | qTorrent

% Раздел Тема Автор DL S | L
Короткометражные мультфильмы [ 98 MB ] Песочник / Piper [2016 мультфильм короткометражка BDRip] koenig Скачать
1 | 0

28-11-2019 20:33  

Отключить всю рекламу на сайте

    Дорогой пользователь! Огромная просьба, поблагодарите релизера, оцените раздачу и оставьте свои комментарий, если Вы скачали Песочник через торрент бесплатно! Внесите свою лепту в развитие PiratBit!
    Комментировать посты могут только пользователи прошедшие не сложную регистрацию
    Показать сообщения:    

    Песочник через торрент
    Скачать бесплатно Песочник
    Песочник скачать торрент
    Песочник смотреть онлайн
    Cкачать фильм Песочник бесплатно
    Песочник скачать торрент в хорошем качестве
    Песочник смотреть онлайн бесплатно в хорошем качестве


    Вы не можете начинать темы
    Вы не можете отвечать на сообщения
    Вы не можете редактировать свои сообщения
    Вы не можете удалять свои сообщения
    Вы не можете голосовать в опросах
    Вы не можете прикреплять файлы к сообщениям
    Вы можете скачивать файлы