Marvel's Avengers Deluxe Edition (супер цена) 159р. Внимание количество ограничено!!!

2 сезон

iTunes

iTunes

1

iTunes

iTunes

iTunes

WEBRip

iTunes

30
pack

Новость дня

ВАЖНО

!!Акция!!

Alien_RageХит недели

RePack

Horizon Zero Dawn

ИГРА 18+

pack

RePack

jed

!!Акция!!

Alien_Rage

RePack

fifa19

RePack

Assassins Creed: Odyssey

RePack

NEED FOR SPEED™ PAYBACK

4 сезон

9 сезон

Бесстыжие 9 сезон

Все сериалы

все сериалы на PB.wtf

RePack

FAR CRY 5
  

Затерянные в лесах (Виктор Татарский ) [2012, мелодрама, криминал, WEB-DL 1080p], Не требуется [Русский] piratbit.pw

Затерянные в лесах через торрент piratbit.pw

Размер: 2.07 GB | Добавлен: 3 года 6 мес. назад | Торрент скачан:49 раз
Скачать  

03-03-2017 20:09 Затерянные в лесах Скачать торрент  

Затерянные в лесах

Год выпуска: 2012
Страна: Россия
Жанр: мелодрама, криминал
Продолжительность: 01:33:52
Перевод: Не требуется [Русский]
Режиссер: Виктор Татарский
В ролях: Кирилл Сафонов (Владимир Красов), Вера Баханкова (Маша Торопилова), Инна Корнышева, Сергей Рублев, Сергей Васильев, Сергей Черапкин, Андрей Чубченко (Алексей Торопилов), Денис Синявский (Григорий Марченко), Сергей Мардарь (Крюков), Владимир Маслаков (Лось), Александр Большаков (бандит), Инна Ярмошук (Мария)
Описание:
В результате крушения частного самолета над глухими лесами погибают крупный бизнесмен — хозяин химического комбината — и его помощник. Выжила лишь дочь бизнесмена — Маша. Девушка бродит по лесу пока не натыкается на лесника, ветерана военной разведки — Владимира, который осознанно выбрал жизнь отшельника…

Качество: WEB-DL 1080p
Формат: MKV
Видео: AVC, 1920x1080 (16:9), 2902 kbps, 25 fps, 0,056 bpp
Аудио: AC3 / 2.0 / 44 kHz / 192 kbps /

General
Unique ID Zaterennyje.v.lesaxh.2012.WEB-DL.1080.mkv
Format : Matroska
Format version : Version 4 / Version 2
File size : 2.07 GiB
Duration : 1 h 33 min
Overall bit rate : 3 157 kb/s
Writing application : Lavf56.25.101
Writing library : Lavf56.25.101 / Lavf56.25.101

Video
ID : 1
Format : AVC
Format/Info : Advanced Video Codec
Format profile : High@L4
Format settings, CABAC : Yes
Format settings, ReFrames : 2 frames
Codec ID : V_MPEG4/ISO/AVC
Duration : 1 h 33 min
Bit rate : 2 902 kb/s
Width : 1 920 pixels
Height : 1 080 pixels
Display aspect ratio : 16:9
Frame rate mode : Constant
Frame rate : 25.000 FPS
Color space : YUV
Chroma subsampling : 4:2:0
Bit depth : 8 bits
Scan type : Progressive
Bits/(Pixel*Frame) : 0.056
Stream size : 1.90 GiB (92%)
Default : Yes
Forced : No
Color range : Limited
Color primaries : BT.709
Transfer characteristics : BT.709
Matrix coefficients : BT.709

Audio
ID : 2
Format : AC-3
Format/Info : Audio Coding 3
Mode extension : CM (complete main)
Format settings, Endianness : Big
Codec ID : A_AC3
Duration : 1 h 33 min
Bit rate mode : Constant
Bit rate : 192 kb/s
Channel(s) : 2 channels
Channel positions : Front: L R
Sampling rate : 44.1 kHz
Frame rate : 28.711 FPS (1536 spf)
Compression mode : Lossy
Delay relative to video : -40 ms
Stream size : 129 MiB (6%)
Default : Yes
Forced : No
piratbit.pw



Скачать Затерянные в лесах через торрент http://i6.imageban.ru/out/2017/03/03/9b3961f7fedce5e8a4a6f62530993a6d.jpg Скачать фильм Затерянные в лесах через торрент бесплантно в хорошем качестве Описание: В результате крушения частного самолета над глухими лесами погибают крупный бизнесмен — хозяин химического комбината — и его ... 10 10 3
Торрент: Зарегистрирован [2017-03-03 20:09] · скачан: 49 раз
Статус: √ проверено
Размер: 2.07 GB
Как cкачать? Как скачать Затерянные в лесах через торрент | qTorrent

% Раздел Тема Автор DL S | L
Наши новые фильмы 2012 [ 1.33 GB ] Затерянные в лесах [2012 SATRip . Оригинал] oleg8 Скачать
1 | 0
Наши новые фильмы 2012 [ 1.09 GB ] Затерянные в лесах [2012 Мело SATRip ] -=Cherry=- Скачать
1 | 0

28-11-2019 20:33  

Отключить всю рекламу на сайте

    Дорогой пользователь! Огромная просьба, поблагодарите релизера, оцените раздачу и оставьте свои комментарий, если Вы скачали Затерянные в лесах через торрент бесплатно! Внесите свою лепту в развитие PiratBit!
    Комментировать посты могут только пользователи прошедшие не сложную регистрацию
    Показать сообщения:    

    Затерянные в лесах через торрент
    Скачать бесплатно Затерянные в лесах
    Затерянные в лесах скачать торрент
    Затерянные в лесах смотреть онлайн
    Cкачать фильм Затерянные в лесах бесплатно
    Затерянные в лесах скачать торрент в хорошем качестве
    Затерянные в лесах смотреть онлайн бесплатно в хорошем качестве


    Вы не можете начинать темы
    Вы не можете отвечать на сообщения
    Вы не можете редактировать свои сообщения
    Вы не можете удалять свои сообщения
    Вы не можете голосовать в опросах
    Вы не можете прикреплять файлы к сообщениям
    Вы можете скачивать файлы