Marvel's Avengers Deluxe Edition (супер цена) 159р. Внимание количество ограничено!!!

2 сезон

iTunes

iTunes

1

iTunes

iTunes

iTunes

WEBRip

iTunes

30
pack

Новость дня

ВАЖНО

!!Акция!!

Alien_RageХит недели

RePack

Horizon Zero Dawn

ИГРА 18+

pack

RePack

jed

!!Акция!!

Alien_Rage

RePack

fifa19

RePack

Assassins Creed: Odyssey

RePack

NEED FOR SPEED™ PAYBACK

4 сезон

9 сезон

Бесстыжие 9 сезон

Все сериалы

все сериалы на PB.wtf

RePack

FAR CRY 5
  

Полцарства за любовь (Александр Хван ) [2014, мелодрама, WEB-DLRip 1080p], Не требуется [Русский] piratbit.pw

Полцарства за любовь через торрент piratbit.pw

Размер: 1.5 GB | Добавлен: 3 года 6 мес. назад | Торрент скачан:39 раз
Скачать  

02-03-2017 18:06 Полцарства за любовь Скачать торрент  

Полцарства за любовь

Год выпуска: 2014
Страна: Россия
Жанр: мелодрама
Продолжительность: 01:30:25
Перевод: Не требуется [Русский]
Режиссер: Александр Хван
В ролях: Юлия Паршута (Кристина), Сергей Марин, Владимир Литвинов, Анна Полупанова, Татьяна Чернопятова, Татьяна Ухарова, Ангелина Притуманова, Анастасия Исакова (Ксюша), Александр Маркатун (Павел Иванович)
Описание:
Кристина, студентка английского университета, приезжает на каникулы в дом к своему отцу, успешному бизнесмену. Мужчина давно потерял жену и знакомит дочку со своей новой любовью Натальей. Однако взбалмошная, избалованная, привыкшая к роскоши и легким деньгам Кристина не желает принимать ее.
С подачи друга отец избирает неожиданный способ перевоспитания — предлагает Кристине самой позаботиться о себе. Героине предстоит неведомая прежде трудовая жизнь: работа в овощной палатке, сон на раскладушке и общение с простыми людьми. Измученную и голодную, ее подберет простой парень Колян…

Качество: WEB-DLRip 1080p
Формат: MKV
Видео: AVC, 1920x1080 (16:9), 2186 kbps, 25 fps, 0,042 bpp
Аудио: AC3 / 2.0 / 44 kHz / 192 kbps /

General
Unique ID Полцарства за любовь (2014).mkv
Format : Matroska
Format version : Version 4 / Version 2
File size : 1.50 GiB
Duration : 1 h 30 min
Overall bit rate : 2 381 kb/s
Encoded date : UTC 2017-01-27 14:52:42
Writing application : mkvmerge v9.8.0 ('Kuglblids') 64bit
Writing library : libebml v1.3.4 + libmatroska v1.4.5 / Lavf57.25.100

Video
ID : 1
Format : AVC
Format/Info : Advanced Video Codec
Format profile : High@L4
Format settings, CABAC : Yes
Format settings, ReFrames : 3 frames
Codec ID : V_MPEG4/ISO/AVC
Duration : 1 h 30 min
Bit rate : 2 187 kb/s
Width : 1 920 pixels
Height : 1 080 pixels
Display aspect ratio : 16:9
Frame rate mode : Constant
Frame rate : 25.000 FPS
Color space : YUV
Chroma subsampling : 4:2:0
Bit depth : 8 bits
Scan type : Progressive
Bits/(Pixel*Frame) : 0.042
Stream size : 1.38 GiB (92%)
Default : Yes
Forced : No
Color range : Limited
Color primaries : BT.709
Transfer characteristics : BT.709
Matrix coefficients : BT.709

Audio
ID : 2
Format : AC-3
Format/Info : Audio Coding 3
Mode extension : CM (complete main)
Format settings, Endianness : Big
Codec ID : A_AC3
Duration : 1 h 30 min
Bit rate mode : Constant
Bit rate : 192 kb/s
Channel(s) : 2 channels
Channel positions : Front: L R
Sampling rate : 44.1 kHz
Frame rate : 28.711 FPS (1536 spf)
Compression mode : Lossy
Delay relative to video : -40 ms
Stream size : 124 MiB (8%)
Default : Yes
Forced : No
piratbit.pw



Скачать Полцарства за любовь через торрент http://i5.imageban.ru/out/2017/03/02/dd3e045c5aafba9fb76274aae0aebcce.jpg Скачать фильм Полцарства за любовь через торрент бесплантно в хорошем качестве Описание: Кристина, студентка английского университета, приезжает на каникулы в дом к своему отцу, успешному бизнесмену. Мужчина давно ... 7.8 10 4
Торрент: Зарегистрирован [2017-03-02 18:06] · скачан: 39 раз
Статус: √ проверено
Размер: 1.5 GB
Как cкачать? Как скачать Полцарства за любовь через торрент | qTorrent

% Раздел Тема Автор DL S | L
Наши новые фильмы 2014 [ 1.37 GB ] Полцарства за любовь [2014 Россия HDTVRip) GEKADOL Скачать
1 | 0

28-11-2019 20:33  

Отключить всю рекламу на сайте

    Дорогой пользователь! Огромная просьба, поблагодарите релизера, оцените раздачу и оставьте свои комментарий, если Вы скачали Полцарства за любовь через торрент бесплатно! Внесите свою лепту в развитие PiratBit!
    Комментировать посты могут только пользователи прошедшие не сложную регистрацию
    Показать сообщения:    

    Полцарства за любовь через торрент
    Скачать бесплатно Полцарства за любовь
    Полцарства за любовь скачать торрент
    Полцарства за любовь смотреть онлайн
    Cкачать фильм Полцарства за любовь бесплатно
    Полцарства за любовь скачать торрент в хорошем качестве
    Полцарства за любовь смотреть онлайн бесплатно в хорошем качестве


    Вы не можете начинать темы
    Вы не можете отвечать на сообщения
    Вы не можете редактировать свои сообщения
    Вы не можете удалять свои сообщения
    Вы не можете голосовать в опросах
    Вы не можете прикреплять файлы к сообщениям
    Вы можете скачивать файлы