Marvel's Avengers Deluxe Edition (супер цена) 159р. Внимание количество ограничено!!!

2 сезон

iTunes

iTunes

1

iTunes

iTunes

iTunes

WEBRip

iTunes

30
pack

Новость дня

ВАЖНО

!!Акция!!

Alien_RageХит недели

RePack

Horizon Zero Dawn

ИГРА 18+

pack

RePack

jed

!!Акция!!

Alien_Rage

RePack

fifa19

RePack

Assassins Creed: Odyssey

RePack

NEED FOR SPEED™ PAYBACK

4 сезон

9 сезон

Бесстыжие 9 сезон

Все сериалы

все сериалы на PB.wtf

RePack

FAR CRY 5
  

Папа напрокат (Артем Литвиненко ) [2008, комедия, WEB-DLRip 1080p], Не требуется [Русский] piratbit.pw

Папа напрокат через торрент piratbit.pw

Размер: 1.41 GB | Добавлен: 3 года 6 мес. назад | Торрент скачан:32 раза
Скачать  

02-03-2017 17:49 Папа напрокат Скачать торрент  

Папа напрокат

Год выпуска: 2008
Страна: Украина
Жанр: комедия
Продолжительность: 01:33:35
Перевод: Не требуется [Русский]
Режиссер: Артем Литвиненко
В ролях: Сергей Гармаш (Толя), Алёна Бабенко (Ирина), Мирослав Белоногий (Кирилл), Ирма Витовская (Соня), Константин Воробьев (Твердохлеб), Александр Перков (помощник Ирины), Тамара Плашенко (психолог), Тарас Жирко (Максим), Виктор Щур (главный охранник), Алексей Тритенко (инициативный охранник), Вячеслав Соломка (молчаливый охранник), Евгения Гладий (блондинка)
Описание:
Молодая женщина Ирина, бизнес-вумен, одна воспитывает сына Кирилла 10-и лет. И все вроде бы хорошо: есть деньги, квартира в центре, сын учится в колледже... Но мальчику катастрофически не хватает отца. Он завидует сверстникам, у которых есть папа и очень страдает...

Качество: WEB-DLRip 1080p
Формат: MKV
Видео: AVC, 1920x1080 (16:9), 1969 kbps, 25 fps, 0,038 bpp
Аудио: AC3 / 2.0 / 44 kHz / 192 kbps /

General
Unique ID Папа напрокат (2008).mkv
Format : Matroska
Format version : Version 4 / Version 2
File size : 1.41 GiB
Duration : 1 h 33 min
Overall bit rate : 2 163 kb/s
Encoded date : UTC 2017-02-07 04:32:39
Writing application : mkvmerge v9.8.0 ('Kuglblids') 64bit
Writing library : libebml v1.3.4 + libmatroska v1.4.5 / Lavf57.25.100

Video
ID : 1
Format : AVC
Format/Info : Advanced Video Codec
Format profile : High@L4
Format settings, CABAC : Yes
Format settings, ReFrames : 3 frames
Codec ID : V_MPEG4/ISO/AVC
Duration : 1 h 33 min
Bit rate : 1 969 kb/s
Width : 1 920 pixels
Height : 1 080 pixels
Display aspect ratio : 16:9
Frame rate mode : Constant
Frame rate : 25.000 FPS
Color space : YUV
Chroma subsampling : 4:2:0
Bit depth : 8 bits
Scan type : Progressive
Bits/(Pixel*Frame) : 0.038
Stream size : 1.29 GiB (91%)
Default : Yes
Forced : No
Color range : Limited
Color primaries : BT.709
Transfer characteristics : BT.709
Matrix coefficients : BT.709

Audio
ID : 2
Format : AC-3
Format/Info : Audio Coding 3
Mode extension : CM (complete main)
Format settings, Endianness : Big
Codec ID : A_AC3
Duration : 1 h 33 min
Bit rate mode : Constant
Bit rate : 192 kb/s
Channel(s) : 2 channels
Channel positions : Front: L R
Sampling rate : 44.1 kHz
Frame rate : 28.711 FPS (1536 spf)
Compression mode : Lossy
Delay relative to video : -40 ms
Stream size : 129 MiB (9%)
Default : Yes
Forced : No
piratbit.pw



Скачать Папа напрокат через торрент http://i6.imageban.ru/out/2017/03/02/32713da28f0b001effdb1df62fa5f966.jpg Скачать фильм Папа напрокат через торрент бесплантно в хорошем качестве Описание: Молодая женщина Ирина, бизнес-вумен, одна воспитывает сына Кирилла 10-и лет. И все вроде бы хорошо: есть деньги, квартира в ... 6.1 10 7
Торрент: Зарегистрирован [2017-03-02 17:49] · скачан: 32 раз
Статус: √ проверено
Размер: 1.41 GB
Как cкачать? Как скачать Папа напрокат через торрент | qTorrent

% Раздел Тема Автор DL S | L
Наши сериалы [ 2.34 GB ] Папа напрокат Сезон: 1 / Серии: 4 из 4 [2014 Мело WEB-DLRip] White Smoke Скачать
1 | 0

28-11-2019 20:33  

Отключить всю рекламу на сайте

    Дорогой пользователь! Огромная просьба, поблагодарите релизера, оцените раздачу и оставьте свои комментарий, если Вы скачали Папа напрокат через торрент бесплатно! Внесите свою лепту в развитие PiratBit!
    Комментировать посты могут только пользователи прошедшие не сложную регистрацию
    Показать сообщения:    

    Папа напрокат через торрент
    Скачать бесплатно Папа напрокат
    Папа напрокат скачать торрент
    Папа напрокат смотреть онлайн
    Cкачать фильм Папа напрокат бесплатно
    Папа напрокат скачать торрент в хорошем качестве
    Папа напрокат смотреть онлайн бесплатно в хорошем качестве


    Вы не можете начинать темы
    Вы не можете отвечать на сообщения
    Вы не можете редактировать свои сообщения
    Вы не можете удалять свои сообщения
    Вы не можете голосовать в опросах
    Вы не можете прикреплять файлы к сообщениям
    Вы можете скачивать файлы