Ссылка на приватное зеркало всего за 1$. Внимание количество ограничено!!!

iTunes

iTunes

iTunes

1

iTunes

iTunes

iTunes

iTunes

iTunes

30
pack

Новость дня

ВАЖНО

!!Акция!!

Alien_RageХит недели

RePack

Resident Evil 21

ИГРА 18+

pack

RePack

jed

!!Акция!!

Alien_Rage

RePack

fifa19

RePack

Assassins Creed: Odyssey

RePack

NEED FOR SPEED™ PAYBACK

4 сезон

9 сезон

Бесстыжие 9 сезон

Все сериалы

все сериалы на PB.wtf

RePack

FAR CRY 5
  

Механик: Воскрешение / Mechanic: Resurrection (Деннис Ганзель ) [2016, боевик, триллер, криминал, UHD WEBRip 2160p] DUB+AVO piratbit.pw

Механик: Воскрешение через торрент piratbit.pw

Размер: 43.66 GB | Добавлен: 3 года 1 мес. назад | Торрент скачан:150 раз
Скачать  

28-02-2017 04:16 Механик: Воскрешение Скачать торрент  

Механик: ВоскрешениеMechanic: Resurrection«Four continents. Three kills... Or the love of his life is dead» Год выпуска: 2016
Страна: Франция, США
Жанр: боевик, триллер, криминал
Продолжительность: 01:38:39
Перевод: Дубляж | Авторский (одноголосый, закадровый)
Режиссер: Деннис Ганзель
В ролях:
Джейсон Стэйтем (Arthur Bishop), Джессика Альба (Gina), Томми Ли Джонс (Max Adams), Мишель Йео (Mei), Сэм Хэзелдайн (Crain), Джон Ченатьемпо (Jeremy), Тоби Эддингтон (Adrian Cook), Феми Элуфоводжо (Krill), Антео Квинтавалле (Frank), Ейяин Рхатха Пхонгам (Courier), Бонни З. Хатчинсон (Headmistress), Стюарт Торп (Rio Thug #1)
Описание:
Артура Бишопа, давно оставившего свое криминальное ремесло, вынуждают снова вступить в игру. Чтобы похитители вернули его возлюбленную, он должен сделать то, что у него получается лучше всего: от него требуется совершить три убийства, идеально обставленных как несчастные случаи.
Рейтинг:

MPAA: R - Лицам до 17 лет обязательно присутствие взрослого
Премьера (мир): 22 августа 2016
Премьера (РФ): 26 августа 2016, «MEGOGO Distribution»
Качество: UHD WEBRip 2160p
Формат: MKV
Видео: HEVC, 57.9 Мбит/с, 3840x2160, 23.976 кадр/с
Аудио №1: Русский (AC3, 6 ch, 384 Кбит/с) | Дубляж
Аудио №2: Русский (AC3, 6 ch, 640 Кбит/с) | Авторский (одноголосый, закадровый) М.Яроцкий
Аудио №3: Русский (DTS, 6 ch, 1509 Кбит/с) | Авторский (одноголосый, закадровый) М.Яроцкий
Аудио №4: Английский (DTS, 6 ch, 1536 Кбит/с) | Оригинал
Общее
Уникальный идентификатор : 178367273040839333577524751308239408887 (0x8630498790969E858BE89B6AE08C0EF7)
Полное имя : Mechanic Resurrection (2016) 2160p 4K UltraHD BluRay (x265 HEVC 10bit) _Мастер5.mkv
Формат : Matroska
Версия формата : Version 2
Размер файла : 43,7 Гбайт
Продолжительность : 1 ч. 38 м.
Общий поток : 63,2 Мбит/сек
Название фильма : Billy.Lynns.Long.Halftime.Walk.2016.3D.1080p.BluRay.x264-Мастер5
Дата кодирования : UTC 2017-02-24 10:58:10
Программа кодирования : mkvmerge v4.2.0 ('No Talking') сборка от Jul 28 2010 18:38:23
Библиотека кодирования : libebml v1.0.0 + libmatroska v1.0.0

Видео
Идентификатор : 1
Формат : HEVC
Формат/Информация : High Efficiency Video Coding
Профиль формата : Main 10@L6.1@Main
Идентификатор кодека : V_MPEGH/ISO/HEVC
Продолжительность : 1 ч. 38 м.
Битрейт : 57,9 Мбит/сек
Ширина : 3840 пикселей
Высота : 2160 пикселей
Соотношение сторон : 16:9
Режим частоты кадров : Постоянный
Частота кадров : 23,976 (24000/1001) кадра/сек
Цветовое пространство : YUV
Субдискретизация насыщенности : 4:2:0
Битовая глубина : 10 бит
Бит/(Пиксели*Кадры) : 0.291
Размер потока : 40,0 Гбайт (92%)
Библиотека кодирования : x265 1.9+3-63308f7658c3:[Windows][GCC 5.2.0][64 bit] 10bit
Настройки программы : wpp / ctu=64 / min-cu-size=8 / max-tu-size=32 / tu-intra-depth=1 / tu-inter-depth=1 / me=1 / subme=7 / merange=57 / no-rect / no-amp / max-merge=2 / temporal-mvp / no-early-skip / rdpenalty=0 / no-tskip / no-tskip-fast / strong-intra-smoothing / no-lossless / no-cu-lossless / no-constrained-intra / no-fast-intra / open-gop / no-temporal-layers / interlace=0 / keyint=240 / min-keyint=24 / scenecut=40 / rc-lookahead=20 / lookahead-slices=8 / bframes=4 / bframe-bias=0 / b-adapt=2 / ref=3 / limit-refs=3 / no-limit-modes / weightp / no-weightb / aq-mode=1 / qg-size=32 / aq-strength=1.00 / cbqpoffs=0 / crqpoffs=0 / rd=3 / psy-rd=2.00 / rdoq-level=0 / psy-rdoq=0.00 / signhide / deblock / sao / no-sao-non-deblock / b-pyramid / cutree / no-intra-refresh / rc=abr / bitrate=61000 / qcomp=0.60 / qpmin=0 / qpmax=51 / qpstep=4 / ipratio=1.40 / pbratio=1.30
Язык : English
Default : Да
Forced : Нет
Цветовой диапазон : Limited
Основные цвета : BT.709
Характеристики трансфера : BT.709
Коэффициенты матрицы : BT.601

Аудио #1
Идентификатор : 2
Формат : AC-3
Формат/Информация : Audio Coding 3
Расширение режима : CM (complete main)
Параметр Endianness формата : Big
Режим смешивания : Header stripping
Идентификатор кодека : A_AC3
Продолжительность : 1 ч. 38 м.
Вид битрейта : Постоянный
Битрейт : 384 Кбит/сек
Каналы : 6 каналов
Расположение каналов : Front: L C R, Side: L R, LFE
Частота : 48,0 КГц
Частота кадров : 31,250 кадров/сек (1536 spf)
Метод сжатия : С потерями
Задержка видео : -5 мс.
Размер потока : 271 Мбайт (1%)
Заголовок : Dub [iTunes]
Язык : Russian
Default : Да
Forced : Нет

Аудио #2
Идентификатор : 3
Формат : AC-3
Формат/Информация : Audio Coding 3
Расширение режима : CM (complete main)
Параметр Endianness формата : Big
Режим смешивания : Header stripping
Идентификатор кодека : A_AC3
Продолжительность : 1 ч. 38 м.
Вид битрейта : Постоянный
Битрейт : 640 Кбит/сек
Каналы : 6 каналов
Расположение каналов : Front: L C R, Side: L R, LFE
Частота : 48,0 КГц
Частота кадров : 31,250 кадров/сек (1536 spf)
Метод сжатия : С потерями
Задержка видео : -5 мс.
Размер потока : 452 Мбайт (1%)
Заголовок : AVO-AC3 [Яроцкий]
Язык : Russian
Default : Нет
Forced : Нет

Аудио #3
Идентификатор : 4
Формат : DTS
Формат/Информация : Digital Theater Systems
Режим : 16
Параметр Endianness формата : Big
Режим смешивания : Header stripping
Идентификатор кодека : A_DTS
Продолжительность : 1 ч. 38 м.
Вид битрейта : Постоянный
Битрейт : 1509 Кбит/сек
Каналы : 6 каналов
Расположение каналов : Front: L C R, Side: L R, LFE
Частота : 48,0 КГц
Частота кадров : 93,750 кадра/сек (512 spf)
Битовая глубина : 24 бит
Метод сжатия : С потерями
Задержка видео : 6 мс.
Размер потока : 1,04 Гбайт (2%)
Заголовок : AVO-DTS [Яроцкий]
Язык : Russian
Default : Нет
Forced : Нет

Аудио #4
Идентификатор : 5
Формат : DTS
Формат/Информация : Digital Theater Systems
Режим : 16
Параметр Endianness формата : Big
Режим смешивания : Header stripping
Идентификатор кодека : A_DTS
Продолжительность : 1 ч. 38 м.
Вид битрейта : Постоянный
Битрейт : 1536 Кбит/сек
Каналы : 6 каналов
Расположение каналов : Front: L C R, Side: L R, LFE
Частота : 48,0 КГц
Частота кадров : 93,750 кадра/сек (512 spf)
Битовая глубина : 16 бит
Метод сжатия : С потерями
Задержка видео : 6 мс.
Размер потока : 1,06 Гбайт (2%)
Заголовок : Original
Язык : English
Default : Нет
Forced : Нет

Текст #1
Идентификатор : 6
Формат : UTF-8
Идентификатор кодека : S_TEXT/UTF8
Идентификатор кодека/Информация : UTF-8 Plain Text
Заголовок : Full
Язык : Russian
Default : Нет
Forced : Нет

Текст #2
Идентификатор : 7
Формат : UTF-8
Идентификатор кодека : S_TEXT/UTF8
Идентификатор кодека/Информация : UTF-8 Plain Text
Заголовок : Full
Язык : English
Default : Нет
Forced : Нет

Текст #3
Идентификатор : 8
Формат : UTF-8
Идентификатор кодека : S_TEXT/UTF8
Идентификатор кодека/Информация : UTF-8 Plain Text
Заголовок : SDH
Язык : English
Default : Нет
Forced : Нет

Меню
00:00:00.000 : en:00:00:00.000
00:06:34.936 : en:00:06:34.936
00:11:51.336 : en:00:11:51.336
00:18:31.277 : en:00:18:31.277
00:26:04.897 : en:00:26:04.897
00:31:57.540 : en:00:31:57.540
00:38:31.267 : en:00:38:31.267
00:43:35.696 : en:00:43:35.696
00:49:23.210 : en:00:49:23.210
00:54:20.382 : en:00:54:20.382
01:00:09.856 : en:01:00:09.856
01:05:50.446 : en:01:05:50.446
01:10:25.429 : en:01:10:25.429
01:14:52.363 : en:01:14:52.363
01:21:04.860 : en:01:21:04.860
01:31:38.785 : en:01:31:38.785


Скриншоты piratbit.pw



Скачать Механик: Воскрешение через торрент http://i89.fastpic.ru/big/2017/0228/b1/12aa67039c64ce8a1bbf39eb97a392b1.png Скачать фильм Механик: Воскрешение через торрент бесплантно в хорошем качестве Описание: Артура Бишопа, давно оставившего свое криминальное ремесло, вынуждают снова вступить в игру. Чтобы похитители вернули его ... 7.8 10 12
Info! Золотая раздача, скачанное не засчитывается.
Торрент: Зарегистрирован [2017-02-28 04:16] · скачан: 150 раз
Статус: √ проверено
Размер: 43.66 GB
Как cкачать? Как скачать Механик: Воскрешение через торрент | qTorrent

% Раздел Тема Автор DL S | L
Ultra HD (UHD: 2K, 4K, 8K) — видео сверхвысокой чёткости [ 62.52 GB ] Механик: Воскрешение / Mechanic: Resurrection [2016 UHD BDRemux 2160p] DUB [] +MVO+2xAVO bober100 Скачать
1 | 0
Фильмы (Blu-ray, BD-Remux, HDDVD) [ 31.42 GB ] Механик: Воскрешение / Mechanic: Resurrection [2016 BD Remux 1080p] [] DUB+AVO bober100 Скачать
1 | 0

28-11-2019 20:33  

Отключить всю рекламу на сайте

28-02-2017 16:20 Механик: Воскрешение Скачать торрент  

Чёткий фильм,мне понравился!!!piratbit.pw



03-03-2017 07:00 Механик: Воскрешение Скачать торрент  

Звук и картинка не совпадают... Как исправить?piratbit.pw



    Дорогой пользователь! Огромная просьба, поблагодарите релизера, оцените раздачу и оставьте свои комментарий, если Вы скачали Механик: Воскрешение через торрент бесплатно! Внесите свою лепту в развитие PiratBit!
    Комментировать посты могут только пользователи прошедшие не сложную регистрацию
    Показать сообщения:    

    Механик: Воскрешение через торрент
    Скачать бесплатно Механик: Воскрешение
    Механик: Воскрешение скачать торрент
    Механик: Воскрешение смотреть онлайн
    Cкачать фильм Механик: Воскрешение бесплатно
    Механик: Воскрешение скачать торрент в хорошем качестве
    Механик: Воскрешение смотреть онлайн бесплатно в хорошем качестве


    Вы не можете начинать темы
    Вы не можете отвечать на сообщения
    Вы не можете редактировать свои сообщения
    Вы не можете удалять свои сообщения
    Вы не можете голосовать в опросах
    Вы не можете прикреплять файлы к сообщениям
    Вы можете скачивать файлы