Marvel's Avengers Deluxe Edition (супер цена) 159р. Внимание количество ограничено!!!

2 сезон

iTunes

iTunes

1

iTunes

iTunes

iTunes

WEBRip

iTunes

30
pack

Новость дня

ВАЖНО

!!Акция!!

Alien_RageХит недели

RePack

Horizon Zero Dawn

ИГРА 18+

pack

RePack

jed

!!Акция!!

Alien_Rage

RePack

fifa19

RePack

Assassins Creed: Odyssey

RePack

NEED FOR SPEED™ PAYBACK

4 сезон

9 сезон

Бесстыжие 9 сезон

Все сериалы

все сериалы на PB.wtf

RePack

FAR CRY 5
  

Вуду / VooDoo (Tom Costabile) [2017 г., ужасы, WEB-DLRip, Любительское (одноголосое) [Хихикающий доктор] ] piratbit.pw

Вуду через торрент piratbit.pw

Размер: 1.37 GB | Добавлен: 3 года 6 мес. назад | Торрент скачан:99 раз
Скачать  

27-02-2017 11:27 Вуду Скачать торрент  

Вуду / VooDoo
Год выпуска: 2017
Страна: США / Hypercube FilmsGreenstone Entertainment
Жанр: ужасы
Продолжительность: 01:23:52
Перевод: Любительское (одноголосое) [Хихикающий доктор]
Субтитры: нет

Режиссер: Tom Costabile

rating

В ролях: Саманта Стюарт, Рут Рейнольдс, Доминик Маттеуччи, Дэн Коз, Рон Джереми, Алек Джастин Хендерсон, Лэвэлл Роби, Ричард Край, Constance Strickland, Николь ДеМария

Описание: Когда Дани, невинная девушка, отправилась в отпуск, в Лос-Анджелес, чтобы избежать проблем с женой ее бывшего парня, то понимает, что избежать своего прошлого не так просто, как она надеялась.

Доп. информация: Без рекламы.

Качество: WEB-DLRip
Формат: AVI
Видео кодек: XviD
Аудио кодек: AC3
Видео: XviD, ~ 1938 Kbps, 720x400, 23.976 fps
Аудио#1: Russian : AC3, 192 Kbps , 2 ch, 48.0 KHz
Аудио#2: Еnglish: AC3, 192 Kbps, 2 ch, 48.0 KHz



General
Complete name : H:\релизы.торрентфайл\VooDoo.2017.L1.WEB-DLRip.avi
Format : AVI
Format/Info : Audio Video Interleave
File size : 1.37 GiB
Duration : 1h 23mn
Overall bit rate : 2 337 Kbps
Writing application : VirtualDubMod 1.5.10.3 | (build 2550/release)
Writing library : VirtualDubMod build 2550/release

Video
ID : 0
Format : MPEG-4 Visual
Format profile : Advanced Simple@L5
Format settings, BVOP : 1
Format settings, QPel : No
Format settings, GMC : No warppoints
Format settings, Matrix : Custom
Codec ID : XVID
Codec ID/Hint : XviD
Duration : 1h 23mn
Bit rate : 1 938 Kbps
Width : 720 pixels
Height : 400 pixels
Display aspect ratio : 16:9
Frame rate : 23.976 fps
Color space : YUV
Chroma subsampling : 4:2:0
Bit depth : 8 bits
Scan type : Progressive
Compression mode : Lossy
Bits/(Pixel*Frame) : 0.281
Stream size : 1.14 GiB (83%)
Writing library : XviD 73

Audio #1
ID : 1
Format : AC-3
Format/Info : Audio Coding 3
Mode extension : CM (complete main)
Format settings, Endianness : Big
Codec ID : 2000
Duration : 1h 23mn
Bit rate mode : Constant
Bit rate : 192 Kbps
Channel(s) : 2 channels
Channel positions : Front: L R
Sampling rate : 48.0 KHz
Bit depth : 16 bits
Compression mode : Lossy
Stream size : 115 MiB (8%)
Alignment : Split accross interleaves
Interleave, duration : 42 ms (1.00 video frame)
Interleave, preload duration : 500 ms

Audio #2
ID : 2
Format : AC-3
Format/Info : Audio Coding 3
Mode extension : CM (complete main)
Format settings, Endianness : Big
Codec ID : 2000
Duration : 1h 23mn
Bit rate mode : Constant
Bit rate : 192 Kbps
Channel(s) : 2 channels
Channel positions : Front: L R
Sampling rate : 48.0 KHz
Bit depth : 16 bits
Compression mode : Lossy
Stream size : 115 MiB (8%)
Alignment : Split accross interleaves
Interleave, duration : 42 ms (1.00 video frame)
Interleave, preload duration : 500 ms

piratbit.pw



Скачать Вуду через торрент http://i91.fastpic.ru/big/2017/0227/7e/548411fda288b82ef69071b230fc547e.jpg Скачать фильм Вуду через торрент бесплантно в хорошем качестве Описание: Когда Дани, невинная девушка, отправилась в отпуск, в Лос-Анджелес, чтобы избежать проблем с женой ее бывшего парня, то понимает, ... 8.9 10 11
Торрент: Зарегистрирован [2017-02-27 11:27] · скачан: 99 раз
Статус: T временная
Размер: 1.37 GB
Как cкачать? Как скачать Вуду через торрент | qTorrent

% Раздел Тема Автор DL S | L
Гонзо [ 3.22 GB ] Супер Звезды Анала от Ле Вуд. / LeWood's Anal Superstars. [2014 Anal Ass to Mouth Big Butt Compilation Double Penetration Face Sitting Gaping. Оригинал] Pir@tya2010 Скачать
1 | 0
Фильмы 2013 (Звук TS, Cam, VO, DVO) [ 1.37 GB ] Одержимость вуду / Voodoo Possession [2013 HDRip Любительский двухголосый] _KaisiK_ Скачать
1 | 0
Гонзо [ 1.45 GB ] Анальная Дедовщина Ли Вуд 4 / The Le Wood Anal Hazing Crew 4 [2013 Anal Threesome Gonzo Hardcore All Sex DVDRip-AVC Оригинал] sheker187 Скачать
1 | 0
Порно фильмы HD [ 7.99 GB ] Анальная Дедовщина Ли Вуд 4 / The Le Wood Anal Hazing Crew 4 [2013 Anal Gonzo WEB-DL1080p ] лисяра Скачать
1 | 0
Порно фильмы с русским переводом [ 1.83 GB ] Секс куклы вуду / Private Movies#12.Voodoo Sex Dolls [2004 Anal Fetish Oral Foreign. DVDRip] [С Русским Переводом] Pir@tya2010 Скачать
1 | 0
Порно фильмы HD [ 7.53 GB ] Старая Анальная Гвардия Ли Вуд 2 / The Le Wood Anal Hazing Crew 2 [2012 Anal Gonzo Hardcore WEB-DL 1080p Оригинал] SKAV Скачать
1 | 0
Фильмы 2011 [ 2.18 GB ] Полночь в Париже / Midnight in Paris [2011 BDRip-AVC от HQ-ViDEO] ~Relizer~ Скачать
2 | 0

28-11-2019 20:33  

Отключить всю рекламу на сайте

    Дорогой пользователь! Огромная просьба, поблагодарите релизера, оцените раздачу и оставьте свои комментарий, если Вы скачали Вуду через торрент бесплатно! Внесите свою лепту в развитие PiratBit!
    Комментировать посты могут только пользователи прошедшие не сложную регистрацию
    Показать сообщения:    

    Вуду через торрент
    Скачать бесплатно Вуду
    Вуду скачать торрент
    Вуду смотреть онлайн
    Cкачать фильм Вуду бесплатно
    Вуду скачать торрент в хорошем качестве
    Вуду смотреть онлайн бесплатно в хорошем качестве


    Вы не можете начинать темы
    Вы не можете отвечать на сообщения
    Вы не можете редактировать свои сообщения
    Вы не можете удалять свои сообщения
    Вы не можете голосовать в опросах
    Вы не можете прикреплять файлы к сообщениям
    Вы можете скачивать файлы