Ссылка на приватное зеркало всего за 1$. Внимание количество ограничено!!!

iTunes

iTunes

iTunes

1

iTunes

iTunes

iTunes

iTunes

iTunes

30
pack

Новость дня

ВАЖНО

!!Акция!!

Alien_RageХит недели

RePack

Resident Evil 21

ИГРА 18+

pack

RePack

jed

!!Акция!!

Alien_Rage

RePack

fifa19

RePack

Assassins Creed: Odyssey

RePack

NEED FOR SPEED™ PAYBACK

4 сезон

9 сезон

Бесстыжие 9 сезон

Все сериалы

все сериалы на PB.wtf

RePack

FAR CRY 5
  

По соображениям совести / Hacksaw Ridge (Мэл Гибсон) [2016, драма, военный, история, UHD WEBRip 2160p] [DUB] [Лицензия / iTunes] piratbit.pw

По соображениям совести через торрент piratbit.pw

Размер: 32.05 GB | Добавлен: 3 года 1 мес. назад | Торрент скачан:446 раз
Скачать  

26-02-2017 23:05 По соображениям совести Скачать торрент  

По соображениям совести / Hacksaw Ridge


Год выпуска: 2016
Выпущено: Австралия, США
Жанр: драма, военный, история
Продолжительность: 02:19:19
Перевод: Дубляж [Лицензия / iTunes]
Субтитры: Русские, английские

Режиссер: Мэл Гибсон

В ролях: Эндрю Гарфилд, Ричард Пирос, Джейкоб Уорнер, Мило Гибсон, Дарси Брайс, Роман Геррьеро, Джеймс Лагтон, Касия Стелмах, Хьюго Уивинг, Рэйчел Гриффитс

Описание: Медик Американской армии времён Второй Мировой войны Дезмонд Досс, который служил во время битвы за Окинаву, отказывается убивать людей и становится первым идейным уклонистом в американской истории, удостоенным Медали Почёта.



Качество: UHD WEBRip 2160p
Источник: ProRes HQ video capture from the UHD Blu-ray
Формат: MKV
Видео: 3840x1612 at 23.976 fps, x265, 10-bit, HDR, ~27.6 Mbps avg
Aудио#1: Russian: 48 kHz, AC3, 3/2 (L,C,R,l,r) + LFE ch, ~384.00 kbps avg |Дубляж, iTunes Russia|
Aудио#2: English: 48 kHz/24-bit, Dolby Atmos TrueHD 7.1, ~4838.00 kbps avg |Blu-ray US|
Aудио#3: English: 48 kHz, AC3, 3/2 (L,C,R,l,r) + LFE ch, ~640.00 kbps avg
Субтитры: Russian (Forced, iTunes), English, English (SDH)
General
Unique ID : 177623903153782997794324513030276301310 (0x85A11E907E15E2679B84B2A91DE2C1FE)
Complete name : X:\Hacksaw.Ridge.2016.2160p.UHD.BluRay.HDR.Atmos7.1.x265-ULTRAHDCLUB.mkv
Format : Matroska
Format version : Version 4 / Version 2
File size : 32.1 GiB
Duration : 2 h 19 min
Overall bit rate mode : Variable
Overall bit rate : 32.9 Mb/s
Movie name : Hacksaw Ridge (2016) - Release for ULTRAHDCLUB
Encoded date : UTC 2017-02-23 19:56:07
Writing application : mkvmerge v9.5.0 ('Quiet Fire') 64bit
Writing library : libebml v1.3.4 + libmatroska v1.4.5

Video
ID : 1
Format : HEVC
Format/Info : High Efficiency Video Coding
Format profile : Main 10@L5@High
Codec ID : V_MPEGH/ISO/HEVC
Duration : 2 h 19 min
Bit rate : 27.6 Mb/s
Width : 3 840 pixels
Height : 1 612 pixels
Display aspect ratio : 2.40:1
Frame rate mode : Constant
Frame rate : 23.976 (23976/1000) FPS
Color space : YUV
Chroma subsampling : 4:2:0 (Type 2)
Bit depth : 10 bits
Bits/(Pixel*Frame) : 0.186
Stream size : 26.9 GiB (84%)
Title : Hacksaw Ridge (2016) - Release for ULTRAHDCLUB
Writing library : x265 2.2+2-998d4520d1cf:[Windows][GCC 6.2.0][64 bit] 10bit
Encoding settings : cpuid=1173503 / frame-threads=5 / numa-pools=16 / wpp / no-pmode / no-pme / no-psnr / no-ssim / log-level=2 / input-csp=1 / input-res=3840x1612 / interlace=0 / total-frames=0 / level-idc=0 / high-tier=1 / uhd-bd=0 / ref=1 / no-allow-non-conformance / repeat-headers / annexb / aud / hrd / info / hash=0 / no-temporal-layers / open-gop / min-keyint=23 / keyint=250 / bframes=3 / b-adapt=2 / b-pyramid / bframe-bias=0 / rc-lookahead=40 / lookahead-slices=0 / scenecut=40 / no-intra-refresh / ctu=32 / min-cu-size=8 / no-rect / no-amp / max-tu-size=32 / tu-inter-depth=1 / tu-intra-depth=1 / limit-tu=0 / rdoq-level=2 / signhide / no-tskip / nr-intra=0 / nr-inter=0 / no-constrained-intra / strong-intra-smoothing / max-merge=2 / limit-refs=0 / no-limit-modes / me=2 / subme=7 / merange=57 / temporal-mvp / weightp / weightb / no-analyze-src-pics / no-deblock / no-sao / no-sao-non-deblock / rd=6 / no-early-skip / no-rskip / fast-intra / no-tskip-fast / no-cu-lossless / no-b-intra / rdpenalty=0 / psy-rd=4.00 / psy-rdoq=8.00 / no-rd-refine / analysis-mode=0 / no-lossless / cbqpoffs=0 / crqpoffs=0 / rc=crf / crf=21.5 / qcomp=0.80 / qpstep=1 / stats-write=0 / stats-read=0 / vbv-maxrate=100000 / vbv-bufsize=100000 / vbv-init=0.9 / crf-max=0.0 / crf-min=0.0 / ipratio=1.10 / pbratio=1.00 / aq-mode=3 / aq-strength=1.00 / no-cutree / zone-count=0 / no-strict-cbr / qg-size=32 / no-rc-grain / qpmax=51 / qpmin=0 / sar=0 / overscan=0 / videoformat=5 / range=0 / colorprim=9 / transfer=16 / colormatrix=9 / chromaloc=1 / chromaloc-top=2 / chromaloc-bottom=2 / display-window=0 / master-display=G(13250,34500)B(7500,3000)R(34000,16000)WP(15635,16450)L(10000000,0) / max-cll=1000,321 / min-luma=0 / max-luma=1023 / log2-max-poc-lsb=8 / vui-timing-info / vui-hrd-info / slices=1 / opt-qp-pps / opt-ref-list-length-pps / no-multi-pass-opt-rps / scenecut-bias=0.05
Language : English
Default : Yes
Forced : No
Color range : Limited
Color primaries : BT.2020
Transfer characteristics : SMPTE ST 2084
Matrix coefficients : BT.2020 non-constant
Mastering display color primaries : R: x=0.680000 y=0.320000, G: x=0.265000 y=0.690000, B: x=0.150000 y=0.060000, White point: x=0.312700 y=0.329000
Mastering display luminance : min: 0.0000 cd/m2, max: 1000.0000 cd/m2
Maximum Content Light Level : 1000 cd/m2
Maximum Frame-Average Light Level : 321 cd/m2

Audio #1
ID : 2
Format : AC-3
Format/Info : Audio Coding 3
Mode extension : CM (complete main)
Format settings, Endianness : Big
Codec ID : A_AC3
Duration : 2 h 19 min
Bit rate mode : Constant
Bit rate : 384 kb/s
Channel(s) : 6 channels
Channel positions : Front: L C R, Side: L R, LFE
Sampling rate : 48.0 kHz
Frame rate : 31.250 FPS (1536 spf)
Bit depth : 16 bits
Compression mode : Lossy
Stream size : 383 MiB (1%)
Title : AC3 5.1 @ 384 kbps - DUB, iTunes
Language : Russian
Default : Yes
Forced : No

Audio #2
ID : 3
Format : Atmos / TrueHD
Codec ID : A_TRUEHD
Duration : 2 h 19 min
Bit rate mode : Variable
Bit rate : 4 198 kb/s
Maximum bit rate : 5 799 kb/s
Channel(s) : Object Based / 8 channels
Channel positions : Object Based / Front: L C R, Side: L R, Back: L R, LFE
Sampling rate : / 48.0 kHz
Frame rate : 1 200.000 FPS (40 spf)
Compression mode : Lossless
Stream size : 4.09 GiB (13%)
Title : Dolby Atmos TrueHD 7.1 @ 4838 kbps - Blu-ray
Language : English
Default : No
Forced : No

Audio #3
ID : 4
Format : AC-3
Format/Info : Audio Coding 3
Mode extension : CM (complete main)
Format settings, Endianness : Big
Codec ID : A_AC3
Duration : 2 h 19 min
Bit rate mode : Constant
Bit rate : 640 kb/s
Channel(s) : 6 channels
Channel positions : Front: L C R, Side: L R, LFE
Sampling rate : 48.0 kHz
Frame rate : 31.250 FPS (1536 spf)
Bit depth : 16 bits
Compression mode : Lossy
Stream size : 638 MiB (2%)
Title : AC3 5.1 @ 640 kbps
Language : English
Default : No
Forced : No

Text #1
ID : 5
Format : UTF-8
Codec ID : S_TEXT/UTF8
Codec ID/Info : UTF-8 Plain Text
Duration : 2 h 12 min
Bit rate : 2 b/s
Count of elements : 45
Stream size : 2.74 KiB (0%)
Title : Forced, iTunes
Language : Russian
Default : Yes
Forced : Yes

Text #2
ID : 6
Format : UTF-8
Codec ID : S_TEXT/UTF8
Codec ID/Info : UTF-8 Plain Text
Duration : 2 h 8 min
Bit rate : 48 b/s
Count of elements : 1342
Stream size : 46.2 KiB (0%)
Language : English
Default : No
Forced : No

Text #3
ID : 7
Format : UTF-8
Codec ID : S_TEXT/UTF8
Codec ID/Info : UTF-8 Plain Text
Duration : 2 h 9 min
Bit rate : 56 b/s
Count of elements : 1655
Stream size : 53.3 KiB (0%)
Title : SDH
Language : English
Default : No
Forced : No

Menu
00:00:00.000 : en:00:00:00.000
00:09:18.766 : en:00:09:18.766
00:18:41.996 : en:00:18:41.996
00:26:34.510 : en:00:26:34.510
00:33:00.562 : en:00:33:00.562
00:40:04.152 : en:00:40:04.152
00:50:07.212 : en:00:50:07.212
00:57:01.543 : en:00:57:01.543
01:04:21.649 : en:01:04:21.649
01:17:50.207 : en:01:17:50.207
01:23:58.700 : en:01:23:58.700
01:31:21.726 : en:01:31:21.726
01:39:02.812 : en:01:39:02.812
01:46:07.569 : en:01:46:07.569
01:59:48.306 : en:01:59:48.306
02:07:13.292 : en:02:07:13.292
piratbit.pw



Скачать По соображениям совести через торрент http://i89.fastpic.ru/big/2017/0207/4a/49b582896abe228484a2c391d545af4a.jpeg Скачать фильм По соображениям совести через торрент бесплантно в хорошем качестве Описание: Медик Американской армии времён Второй Мировой войны Дезмонд Досс, который служил во время битвы за Окинаву, отказывается убивать ... 8.9 10 12
Info! Золотая раздача, скачанное не засчитывается.
Торрент: Зарегистрирован [2017-02-26 23:05] · скачан: 446 раз
Статус: √ проверено
Размер: 32.05 GB
Как cкачать? Как скачать По соображениям совести через торрент | qTorrent

% Раздел Тема Автор DL S | L
Ultra HD (UHD: 2K, 4K, 8K) — видео сверхвысокой чёткости [ 79.26 GB ] По соображениям совести / Hacksaw Ridge [2016 военный история UHD BDRemux 2160p] + 3xAVO sheker187 Скачать
1 | 0
Ultra HD (UHD: 2K, 4K, 8K) — видео сверхвысокой чёткости [ 70.03 GB ] По соображениям совести / Hacksaw Ridge [2016 военный история UHD BDRemux 2160p] DUB [] bober100 Скачать
1 | 0
Фильмы с авторской озвучкой [ 2.17 GB ] По соображениям совести / Hacksaw Ridge [2016 военный биография BDRip-AVC от _denis_100 | NNNB] AVO + Sub _denis_100 Скачать
2 | 0
Фильмы (Blu-ray, BD-Remux, HDDVD) [ 40.74 GB ] По соображениям совести / Hacksaw Ridge [2016 военный история Blu-ray 1080p] bober100 Скачать
1 | 0
Фильмы с авторской озвучкой [ 2.18 GB ] По соображениям совести / Hacksaw Ridge [2016 военный биография история HDRip] [AVO] killermax2013 Скачать
2 | 0
Фильмы 2016 [DVDrip, WEB-DLRip, HDrip] (DUB, MVO) [ 2.12 GB ] По соображениям совести / Hacksaw Ridge [2016 военный история BDRip] - Twi7ter Скачать
4 | 0
Фильмы 2016 [DVDrip, WEB-DLRip, HDrip] (DUB, MVO) [ 1.46 GB ] По соображениям совести / Hacksaw Ridge [2016 военный история BDRip] - Twi7ter Скачать
4 | 0

28-11-2019 20:33  

Отключить всю рекламу на сайте

27-02-2017 05:45 По соображениям совести Скачать торрент  

27-02-2017 07:26 По соображениям совести Скачать торрент  


Цитата:

capture from the UHD Blu-ray

piratbit.pw



27-02-2017 08:04 По соображениям совести Скачать торрент  

killermax2013, читайте тему по ссылке выше, там всё указано.piratbit.pw



27-02-2017 08:12 По соображениям совести Скачать торрент  

-Lexx- писал(а):

killermax2013, читайте тему по ссылке выше, там всё указано.

за что купил то за то и продал, по мне так хоть camrip будет piratbit.pw



27-02-2017 08:42 По соображениям совести Скачать торрент  

killermax2013 писал(а):

за что купил то за то и продал, по мне так хоть camrip будет

Ну, у нас тут не рынок, чтобы заниматься покупками-продажами и обманом потребителя)

Вбейте в переводчик Гугл фразу "ProRes HQ video capture from the UHD Blu-ray" и посмотрите результат.

скриншот  

Это именно захат видео, а не рип с Ultra-HD-Blu-ray, о чем и говорится в данной теме Обозначения качества рипов с UHD!

Ворон писал(а):

На данный момент, пока нет рипов напрямую с UHD: 2K, 4K, 8K . Только записи с экрана с данных источников.

Поэтому, на будущее, будте добры указывать качество именно так, как принято на нашем трекере.piratbit.pw



04-03-2017 19:19 По соображениям совести Скачать торрент  

Я аж плакал пацаныpiratbit.pw



23-03-2017 21:49 По соображениям совести Скачать торрент  

Rentos писал(а):

Я аж плакал пацаны

А я не плакал,так как смотрел фильм с девушкой (гордость не позволила наверное))))) но если бы смотрел один-наверное всплакнул бы тоже....фильм реально хороший !!! Меня очень радуют все фильмы к которым приложили руку Мэл Гибсон и Клинт Иствуд (не в роли актеров конечно)piratbit.pw



    Дорогой пользователь! Огромная просьба, поблагодарите релизера, оцените раздачу и оставьте свои комментарий, если Вы скачали По соображениям совести через торрент бесплатно! Внесите свою лепту в развитие PiratBit!
    Комментировать посты могут только пользователи прошедшие не сложную регистрацию
    Показать сообщения:    

    По соображениям совести через торрент
    Скачать бесплатно По соображениям совести
    По соображениям совести скачать торрент
    По соображениям совести смотреть онлайн
    Cкачать фильм По соображениям совести бесплатно
    По соображениям совести скачать торрент в хорошем качестве
    По соображениям совести смотреть онлайн бесплатно в хорошем качестве


    Вы не можете начинать темы
    Вы не можете отвечать на сообщения
    Вы не можете редактировать свои сообщения
    Вы не можете удалять свои сообщения
    Вы не можете голосовать в опросах
    Вы не можете прикреплять файлы к сообщениям
    Вы можете скачивать файлы