Ссылка на приватное зеркало всего за 1$. Внимание количество ограничено!!!

iTunes

iTunes

iTunes

1

iTunes

iTunes

iTunes

iTunes

iTunes

30
pack

Новость дня

ВАЖНО

!!Акция!!

Alien_RageХит недели

RePack

Resident Evil 21

ИГРА 18+

pack

RePack

jed

!!Акция!!

Alien_Rage

RePack

fifa19

RePack

Assassins Creed: Odyssey

RePack

NEED FOR SPEED™ PAYBACK

4 сезон

9 сезон

Бесстыжие 9 сезон

Все сериалы

все сериалы на PB.wtf

RePack

FAR CRY 5
  

Солт / Salt (Филлип Нойс ) [2010, боевик, триллер, криминал, UHD WEBRip 2160p] DUB+AVO [Лицензия] piratbit.pw

Солт через торрент piratbit.pw

Размер: 34.7 GB | Добавлен: 3 года 1 мес. назад | Торрент скачан:104 раза
Скачать  

26-02-2017 10:15 Солт Скачать торрент  

СолтSalt«Кто она?» Год выпуска: 2010
Страна: США
Жанр: боевик, триллер, криминал, детектив
Продолжительность: 01:39:59
Перевод: Дубляж, Авторский одноголосый
Субтитры: русские (Forced), русские, английские
Режиссер: Филлип Нойс
В ролях:
Анджелина Джоли (Evelyn Salt), Лив Шрайбер (Ted Winter), Чиветель Эджиофор (Peabody), Даниэль Ольбрыхский (Orlov), Аугуст Диль (Mike Krause), Дэниэл Пирс (Young Orlov), Хант Блок (U.S. President Lewis), Андре Брогер (Secretary of Defense), Олек Крупа (Russian President Matveyev), Кэссиди Хинкль (12-Year-Old Chenkov), Кори Столл (Shnaider), Владислав Куликов (Chenkov's Father)
Описание:
Эвелин Солт - сотрудница ЦРУ. Ей чудом удаётся избежать тюрьмы: собственное агентство выдвигает против неё необоснованные обвинения в том, что она работает на русскую разведку. Теперь Солт необходимо восстановить своё доброе имя.
Рейтинг:

MPAA: PG-13 - Детям до 13 лет просмотр не желателен
Премьера (мир): 19 июля 2010
Премьера (РФ): 29 июля 2010, «WDSSPR»
Качество: UHD WEBRip 2160p
Формат: MKV
Видео: AVC, 3840x1606 (2.40:1), 47339 kbps, 23,976 fps, 0,320 bpp
Аудио №1: русский / AC3 / 5.1 / 48 kHz / 640 kbps / || |Дубляж, Blu-ray CEE|
Аудио №2: русский / AC3 / 5.1 / 48 kHz / 640 kbps / || |Одноголосый закадровый, А. Гаврилов|
Аудио №3: украинский / AC3 / 5.1 / 48 kHz / 448 kbps / |Дубляж, Blu-ray CEE|
Аудио №4: английский / AC3 / 5.1 / 48 kHz / 640 kbps / |Blu-ray CEE|
Навигация по главам: есть
General
Unique ID : 209280455131637710624061316106614341872 (0x9D71F3147BBC816AA93FF4281A4200F0)
Complete name : Солт (2010, WEB-DL 2160).mkv
Format : Matroska
Format version : Version 4 / Version 2
File size : 34.7 GiB
Duration : 1 h 39 min
Overall bit rate : 49.7 Mb/s
Encoded date : UTC 2015-11-16 17:52:08
Writing application : mkvmerge v8.3.0 ('Over the Horizon') 64bit
Writing library : libebml v1.3.1 + libmatroska v1.4.2

Video
ID : 1
Format : AVC
Format/Info : Advanced Video Codec
Format profile : High@L5.1
Format settings, CABAC : Yes
Format settings, ReFrames : 5 frames
Codec ID : V_MPEG4/ISO/AVC
Duration : 1 h 39 min
Bit rate : 47.3 Mb/s
Width : 3 840 pixels
Height : 1 606 pixels
Display aspect ratio : 2.40:1
Frame rate mode : Constant
Frame rate : 23.976 (24000/1001) FPS
Color space : YUV
Chroma subsampling : 4:2:0
Bit depth : 8 bits
Scan type : Progressive
Bits/(Pixel*Frame) : 0.320
Stream size : 33.0 GiB (95%)
Title : Salt (2010) [Theatrical Cut]
Writing library : x264 core 146 r2538 121396c
Encoding settings : cabac=1 / ref=5 / deblock=1:-2:-2 / analyse=0x3:0x133 / me=umh / subme=9 / psy=1 / psy_rd=1.15:0.00 / mixed_ref=1 / me_range=32 / chroma_me=1 / trellis=2 / 8x8dct=1 / cqm=0 / deadzone=21,11 / fast_pskip=1 / chroma_qp_offset=-2 / threads=12 / lookahead_threads=1 / sliced_threads=0 / nr=0 / decimate=0 / interlaced=0 / bluray_compat=0 / constrained_intra=0 / bframes=3 / b_pyramid=2 / b_adapt=2 / b_bias=0 / direct=3 / weightb=1 / open_gop=0 / weightp=2 / keyint=240 / keyint_min=23 / scenecut=40 / intra_refresh=0 / rc_lookahead=60 / rc=crf / mbtree=1 / crf=18.0 / qcomp=0.70 / qpmin=0 / qpmax=69 / qpstep=4 / vbv_maxrate=300000 / vbv_bufsize=300000 / crf_max=0.0 / nal_hrd=none / filler=0 / ip_ratio=1.30 / aq=1:0.70
Default : Yes
Forced : No

Audio #1
ID : 2
Format : AC-3
Format/Info : Audio Coding 3
Mode extension : CM (complete main)
Format settings, Endianness : Big
Codec ID : A_AC3
Duration : 1 h 39 min
Bit rate mode : Constant
Bit rate : 640 kb/s
Channel(s) : 6 channels
Channel positions : Front: L C R, Side: L R, LFE
Sampling rate : 48.0 kHz
Frame rate : 31.250 FPS (1536 spf)
Compression mode : Lossy
Delay relative to video : 24 ms
Stream size : 458 MiB (1%)
Title : AC3 5.1 @ 640 kbps - DUB, Blu-ray CEE
Language : Russian
Default : Yes
Forced : No

Audio #2
ID : 3
Format : AC-3
Format/Info : Audio Coding 3
Mode extension : CM (complete main)
Format settings, Endianness : Big
Codec ID : A_AC3
Duration : 1 h 39 min
Bit rate mode : Constant
Bit rate : 640 kb/s
Channel(s) : 6 channels
Channel positions : Front: L C R, Side: L R, LFE
Sampling rate : 48.0 kHz
Frame rate : 31.250 FPS (1536 spf)
Compression mode : Lossy
Stream size : 458 MiB (1%)
Title : AC3 5.1 @ 640 kbps - AVO, A.Gavrilov
Language : Russian
Default : No
Forced : No

Audio #3
ID : 4
Format : AC-3
Format/Info : Audio Coding 3
Mode extension : CM (complete main)
Format settings, Endianness : Big
Codec ID : A_AC3
Duration : 1 h 39 min
Bit rate mode : Constant
Bit rate : 448 kb/s
Channel(s) : 6 channels
Channel positions : Front: L C R, Side: L R, LFE
Sampling rate : 48.0 kHz
Frame rate : 31.250 FPS (1536 spf)
Compression mode : Lossy
Delay relative to video : 24 ms
Stream size : 320 MiB (1%)
Title : AC3 5.1 @ 448 kbps - DUB, Blu-ray CEE
Language : Ukrainian
Default : No
Forced : No

Audio #4
ID : 5
Format : AC-3
Format/Info : Audio Coding 3
Mode extension : CM (complete main)
Format settings, Endianness : Big
Codec ID : A_AC3
Duration : 1 h 39 min
Bit rate mode : Constant
Bit rate : 640 kb/s
Channel(s) : 6 channels
Channel positions : Front: L C R, Side: L R, LFE
Sampling rate : 48.0 kHz
Frame rate : 31.250 FPS (1536 spf)
Compression mode : Lossy
Stream size : 458 MiB (1%)
Title : AC3 5.1 @ 640 kbps - Blu-ray CEE
Language : English
Default : No
Forced : No

Text #1
ID : 6
Format : UTF-8
Codec ID : S_TEXT/UTF8
Codec ID/Info : UTF-8 Plain Text
Duration : 1 h 28 min
Bit rate : 0 b/s
Count of elements : 7
Stream size : 418 Bytes (0%)
Title : Forced
Language : Russian
Default : Yes
Forced : Yes

Text #2
ID : 7
Format : UTF-8
Codec ID : S_TEXT/UTF8
Codec ID/Info : UTF-8 Plain Text
Duration : 1 h 32 min
Bit rate : 76 b/s
Count of elements : 937
Stream size : 51.4 KiB (0%)
Language : Russian
Default : No
Forced : No

Text #3
ID : 8
Format : UTF-8
Codec ID : S_TEXT/UTF8
Codec ID/Info : UTF-8 Plain Text
Duration : 1 h 30 min
Bit rate : 47 b/s
Count of elements : 965
Stream size : 31.8 KiB (0%)
Language : English
Default : No
Forced : No

Menu
00:00:00.000 : en:00:00:00.000
00:07:07.344 : en:00:07:07.344
00:10:04.896 : en:00:10:04.896
00:16:43.544 : en:00:16:43.544
00:24:37.726 : en:00:24:37.726
00:30:45.302 : en:00:30:45.302
00:37:44.053 : en:00:37:44.053
00:42:38.306 : en:00:42:38.306
00:48:35.871 : en:00:48:35.871
00:54:57.294 : en:00:54:57.294
01:01:07.330 : en:01:01:07.330
01:05:55.576 : en:01:05:55.576
01:12:07.782 : en:01:12:07.782
01:19:27.012 : en:01:19:27.012
01:26:07.996 : en:01:26:07.996
01:32:03.810 : en:01:32:03.810


Скриншоты piratbit.pw



Скачать Солт через торрент http://i90.fastpic.ru/big/2017/0226/3d/33358b7b13bf1f22ca02a5ad0c1b143d.png Скачать фильм Солт через торрент бесплантно в хорошем качестве Описание: Эвелин Солт - сотрудница ЦРУ. Ей чудом удаётся избежать тюрьмы: собственное агентство выдвигает против неё необоснованные ... 10 10 5
Info! Золотая раздача, скачанное не засчитывается.
Торрент: Зарегистрирован [2017-02-26 10:15] · скачан: 104 раз
Статус: √ проверено
Размер: 34.7 GB
Как cкачать? Как скачать Солт через торрент | qTorrent

% Раздел Тема Автор DL S | L
Фильмы (Blu-ray, BD-Remux, HDDVD) [ 18.31 GB ] Солт / Salt [2010 BDRemux 1080p] DUB + AVO [А.Гаврилов] sheker187 Скачать
1 | 0
Ultra HD (UHD: 2K, 4K, 8K) — видео сверхвысокой чёткости [ 44.65 GB ] Солт / Salt [2010 UHD BDRemux 2160p] DUB [] +AVO [Гаврилов] [Театральная версия] bober100 Скачать
1 | 0
Фильмы 2001-2005 [ 1.45 GB ] Море Солтона / The Salton Sea [2002 HDRip ] bober100 Скачать
2 | 0
Фильмы 2001-2005 [ 2.18 GB ] Море Солтона / The Salton Sea [2002 HDTVRip + Оригинал] кэп Скачать
1 | 0
Фильмы [HD 720p, 1080p] (Хороший звук DUB, MVO) [ 2.38 GB ] Солт / Salt [2010 ... BDRip ] Shmel Скачать
1 | 0
Фильмы 2010 [ 2.18 GB ] Солт / Salt [Director's Cut] [2010 BDRip DUB лицензия] vanya110 Скачать
1 | 0
Фильмы [HD 720p, 1080p] (Хороший звук DUB, MVO) [ 9.02 GB ] Солт / Salt [2010 BDRip ] / UNRATED k@rl$on Скачать
1 | 0

28-11-2019 20:33  

Отключить всю рекламу на сайте

    Дорогой пользователь! Огромная просьба, поблагодарите релизера, оцените раздачу и оставьте свои комментарий, если Вы скачали Солт через торрент бесплатно! Внесите свою лепту в развитие PiratBit!
    Комментировать посты могут только пользователи прошедшие не сложную регистрацию
    Показать сообщения:    

    Солт через торрент
    Скачать бесплатно Солт
    Солт скачать торрент
    Солт смотреть онлайн
    Cкачать фильм Солт бесплатно
    Солт скачать торрент в хорошем качестве
    Солт смотреть онлайн бесплатно в хорошем качестве


    Вы не можете начинать темы
    Вы не можете отвечать на сообщения
    Вы не можете редактировать свои сообщения
    Вы не можете удалять свои сообщения
    Вы не можете голосовать в опросах
    Вы не можете прикреплять файлы к сообщениям
    Вы можете скачивать файлы