Ссылка на приватное зеркало всего за 1$. Внимание количество ограничено!!!

iTunes

1+1

iTunes

мы

iTunes

1

iTunes

Джокер

Пифагор

Ведьмак / The Witcher сериал

iTunes

ПШазам

iTunes

Оно 2

iTunes

30
pack

Новость дня

ВАЖНО

!!Акция!!

Alien_RageХит недели

RePack

Resident Evil 21

ИГРА 18+

pack

RePack

jed

!!Акция!!

Alien_Rage

RePack

fifa19

RePack

Assassins Creed: Odyssey

RePack

NEED FOR SPEED™ PAYBACK

4 сезон

9 сезон

Бесстыжие 9 сезон

Все сериалы

все сериалы на PB.wtf

RePack

FAR CRY 5
  

Боги Египта / Gods of Egypt (Алекс Пройас ) [2016, фэнтези, боевик, приключения, UHD WEBRip 2160p] Дубляж - [Лицензия] piratbit.pw

Боги Египта через торрент piratbit.pw

Размер: 27.66 GB | Добавлен: 3 года 1 мес. назад | Торрент скачан:256 раз
Скачать  

26-02-2017 09:28 Боги Египта Скачать торрент  

Боги ЕгиптаGods of Egypt«All of Heaven is at war» Год выпуска: 2016
Страна: США, Австралия
Выпущено: Mystery Clock Cinema, Pyramania, Summit Entertainment, Thunder Road
Жанр: фэнтези, боевик, приключения
Продолжительность: 02:07:00
Перевод: Дубляж - [Лицензия]
Режиссер: Алекс Пройас
В ролях:
Брентон Туэйтс (Bek), Джерард Батлер (Set), Николай Костер-Вальдау (Horus), Чедвик Боузман (Thoth), Элоди Юнг (Hathor), Кортни Итон (Zaya), Руфус Сьюэлл (Urshu), Джеффри Раш (Ra), Брайан Браун (Osiris), Рэйчел Блейк (Isis), Эмма Бут (Nephthys), Александр Инглэнд (Mnevis)
Описание:
Некогда мирное и процветающее египетское царство погружается в хаос: беспощадный бог тьмы Сет убивает своего брата Осириса и узурпирует трон. Вызов ему неожиданно бросает простой смертный, находчивый молодой вор. Чтобы вернуть к жизни свою прекрасную возлюбленную, ему приходится заручиться поддержкой могущественного и мстительного бога Гора. Лишь выдержав испытание на прочность и принеся в жертву все самое дорогое, им удастся противостоять Сету и его приспешникам в мире живых и мире мертвых.
Рейтинг:

MPAA: PG-13 - Детям до 13 лет просмотр не желателен
Премьера (мир): 24 февраля 2016
Премьера (РФ): 25 февраля 2016, «Централ Партнершип»
Качество: UHD WEBRip 2160p
Формат: MKV
Видео: V_MPEGH/ISO/HEVC, 3840x1600 (2.40:1), 30730 kbps, 23,976 fps, 0,209 bpp
Аудио №1: русский / AC3 / 5.1 / 48 kHz / 448 kbps / ||
Аудио №2: AAC LC / 2.0 / 48 kHz / 160 kbps /
General
Unique ID : 211281958836348085208204216273298777903 (0x9EF36CD4DF45FCC694855EFB43B3E72F)
Complete name : Gods of Egypt (2016) 2160p UltraHD BluRay HEVC x265 10bit (30mbps Bitrate) 2CH AAC.mkv
Format : Matroska
Format version : Version 4 / Version 2
File size : 27.7 GiB
Duration : 2 h 7 min
Overall bit rate : 31.2 Mb/s
Encoded date : UTC 2017-02-15 17:04:30
Writing application : mkvmerge v9.8.0 ('Kuglblids') 64bit
Writing library : libebml v1.3.4 + libmatroska v1.4.5

Video
ID : 1
Format : HEVC
Format/Info : High Efficiency Video Coding
Format profile : Main 10@L5.1@Main
Codec ID : V_MPEGH/ISO/HEVC
Duration : 2 h 6 min
Bit rate : 30.7 Mb/s
Width : 3 840 pixels
Height : 1 600 pixels
Display aspect ratio : 2.40:1
Frame rate mode : Constant
Frame rate : 23.976 (24000/1001) FPS
Color space : YUV
Chroma subsampling : 4:2:0
Bit depth : 10 bits
Bits/(Pixel*Frame) : 0.209
Stream size : 27.1 GiB (98%)
Writing library : x265 1.9+3-63308f7658c3:[Windows][GCC 5.2.0][64 bit] 10bit
Encoding settings : wpp / ctu=64 / min-cu-size=8 / max-tu-size=32 / tu-intra-depth=1 / tu-inter-depth=1 / me=1 / subme=2 / merange=57 / no-rect / no-amp / max-merge=2 / temporal-mvp / no-early-skip / rdpenalty=0 / no-tskip / no-tskip-fast / strong-intra-smoothing / no-lossless / no-cu-lossless / no-constrained-intra / no-fast-intra / open-gop / no-temporal-layers / interlace=0 / keyint=240 / min-keyint=24 / scenecut=40 / rc-lookahead=20 / lookahead-slices=8 / bframes=4 / bframe-bias=0 / b-adapt=2 / ref=3 / limit-refs=3 / no-limit-modes / weightp / no-weightb / aq-mode=1 / qg-size=32 / aq-strength=1.00 / cbqpoffs=0 / crqpoffs=0 / rd=3 / psy-rd=2.00 / rdoq-level=0 / psy-rdoq=0.00 / signhide / deblock / sao / no-sao-non-deblock / b-pyramid / cutree / no-intra-refresh / rc=abr / bitrate=31000 / qcomp=0.60 / qpmin=0 / qpmax=51 / qpstep=4 / ipratio=1.40 / pbratio=1.30
Default : Yes
Forced : No
Color range : Limited
Color primaries : BT.709
Transfer characteristics : BT.709
Matrix coefficients : BT.601

Audio #1
ID : 2
Format : AC-3
Format/Info : Audio Coding 3
Mode extension : CM (complete main)
Format settings, Endianness : Big
Codec ID : A_AC3
Duration : 2 h 7 min
Bit rate mode : Constant
Bit rate : 448 kb/s
Channel(s) : 6 channels
Channel positions : Front: L C R, Side: L R, LFE
Sampling rate : 48.0 kHz
Frame rate : 31.250 FPS (1536 spf)
Compression mode : Lossy
Delay relative to video : 7 ms
Stream size : 407 MiB (1%)
Language : Russian
Default : No
Forced : No

Audio #2
ID : 3
Format : AAC
Format/Info : Advanced Audio Codec
Format profile : LC
Codec ID : A_AAC
Duration : 2 h 6 min
Bit rate : 160 kb/s
Channel(s) : 2 channels
Channel positions : Front: L R
Sampling rate : 48.0 kHz
Frame rate : 46.875 FPS (1024 spf)
Compression mode : Lossy
Delay relative to video : -21 ms
Stream size : 145 MiB (1%)
Title : Stereo
Default : Yes
Forced : No


Скринлисты piratbit.pw



Скачать Боги Египта через торрент http://i89.fastpic.ru/big/2017/0226/c9/46413a4f8fd339f4a0a3519e450f5cc9.png Скачать фильм Боги Египта через торрент бесплантно в хорошем качестве Описание: Некогда мирное и процветающее египетское царство погружается в хаос: беспощадный бог тьмы Сет убивает своего брата Осириса и ... 10 10 11
Торрент: Зарегистрирован [2017-02-26 09:28] · скачан: 256 раз
Статус: √ проверено
Размер: 27.66 GB
Как cкачать? Как скачать Боги Египта через торрент | qTorrent

% Раздел Тема Автор DL S | L
Ultra HD (UHD: 2K, 4K, 8K) — видео сверхвысокой чёткости [ 58.38 GB ] Боги Египта / Gods of Egypt [2016 UHD BDRemux 2160p] DUB [] +2xAVO bober100 Скачать
3 | 0
Ultra HD (UHD: 2K, 4K, 8K) — видео сверхвысокой чёткости [ 56.39 GB ] Боги Египта / Gods of Egypt [2016 UHD BDRemux 2160p] DUB [] + AVO [А. Матвеев] sheker187 Скачать
2 | 0
Фильмы 2016 [DVDrip, WEB-DLRip, HDrip] (DUB, MVO) [ 2.91 GB ] Боги Египта / Gods of Egypt [2016 BDRip-AVC от sokol_ok] DUB sokol_ok Скачать
3 | 0
Фильмы 2016 [DVDrip, WEB-DLRip, HDrip] (DUB, MVO) [ 1.46 GB ] Боги Египта / Gods of Egypt [2016 BDRip] DUB Twi7ter Скачать
1 | 0
Фильмы (DVD фильмы) [ 6.74 GB ] Боги Египта / Gods of Egypt [2016 DVD9] R5 voovaz Скачать
1 | 0
Фильмы 2016 [DVDrip, WEB-DLRip, HDrip] (DUB, MVO) [ 1.46 GB ] Боги Египта / Gods of Egypt [2016 BDRip-AVC от sokol_ok] DUB sokol_ok Скачать
5 | 0
R.G. Resident & PiratVoice - Фильмы, Видео [ 2.17 GB ] Боги Египта / Gods of Egypt [2016 BDRip-AVC] DUB R.G.Resident White Smoke Скачать
1 | 0

28-11-2019 20:33  

Отключить всю рекламу на сайте

    Дорогой пользователь! Огромная просьба, поблагодарите релизера, оцените раздачу и оставьте свои комментарий, если Вы скачали Боги Египта через торрент бесплатно! Внесите свою лепту в развитие PiratBit!
    Комментировать посты могут только пользователи прошедшие не сложную регистрацию
    Показать сообщения:    

    Боги Египта через торрент
    Скачать бесплатно Боги Египта
    Боги Египта скачать торрент
    Боги Египта смотреть онлайн
    Cкачать фильм Боги Египта бесплатно
    Боги Египта скачать торрент в хорошем качестве
    Боги Египта смотреть онлайн бесплатно в хорошем качестве


    Вы не можете начинать темы
    Вы не можете отвечать на сообщения
    Вы не можете редактировать свои сообщения
    Вы не можете удалять свои сообщения
    Вы не можете голосовать в опросах
    Вы не можете прикреплять файлы к сообщениям
    Вы можете скачивать файлы