Ссылка на приватное зеркало всего за 1$. Внимание количество ограничено!!!

iTunes

iTunes

iTunes

1

iTunes

iTunes

iTunes

iTunes

iTunes

30
pack

Новость дня

ВАЖНО

!!Акция!!

Alien_RageХит недели

RePack

Resident Evil 21

ИГРА 18+

pack

RePack

jed

!!Акция!!

Alien_Rage

RePack

fifa19

RePack

Assassins Creed: Odyssey

RePack

NEED FOR SPEED™ PAYBACK

4 сезон

9 сезон

Бесстыжие 9 сезон

Все сериалы

все сериалы на PB.wtf

RePack

FAR CRY 5
  

Игра Эндера / Ender's Game (Гэвин Худ ) [2013, фантастика, боевик, UHD WEBRip 2160p] DUB+2xAVO piratbit.pw

Игра Эндера через торрент piratbit.pw

Размер: 24.69 GB | Добавлен: 3 года 1 мес. назад | Торрент скачан:128 раз
Скачать  

26-02-2017 09:12 Игра Эндера Скачать торрент  

Игра ЭндераEnder's Game«Это не игра» Год выпуска: 2013
Страна: США
Жанр: фантастика, боевик
Продолжительность: 01:53:48
Перевод: Профессиональный (полное дублирование) | Авторский одноголосый
Субтитры: русские (voronine), английские (eng-sub), английские (eng-sub (SDH)), английские, английские, Spanish
Режиссер: Гэвин Худ
В ролях:
Эйса Баттерфилд (Ender Wiggin), Харрисон Форд (Colonel Graff), Бен Кингсли (Mazer Rackham), Виола Дэвис (Major Gwen Anderson), Хейли Стайнфелд (Petra Arkanian), Эбигейл Бреслин (Valentine Wiggin), Арамис Найт (Bean), Сурадж Партха (Alai), Мойзес Ариас (Bonzo Madrid), Кайлин Рамбо (Dink Meeker), Джимми ’Джекс’ Пинчак (Peter Wiggin), Нонсо Анози (Sergeant Dap)
Описание:
Действие происходит в 2135 году. Человечество пережило два вторжения инопланетной расы «жукеров», лишь чудом уцелев, и готовится к очередному вторжению.
Рейтинг:

MPAA: PG-13 - Детям до 13 лет просмотр не желателен
Премьера (мир): 24 октября 2013
Премьера (РФ): 31 октября 2013, «West»
Качество: UHD WEBRip 2160p
Формат: MKV
Видео: V_MPEGH/ISO/HEVC, 3840x1600 (2.40:1), 24193 kbps, 23,976 fps, 0,164 bpp
Аудио №1: русский / AC3 / 5.1 / 48 kHz / 384 kbps / || |Дубляж, R5 / TV 1000 Action|
Аудио №2: русский / AC3 / 2.0 / 48 kHz / 192 kbps / || |Дубляж, ТНТ|
Аудио №3: русский / AC3 / 5.1 / 48 kHz / 640 kbps / || |Одноголосый закадровый, В.Горчаков|
Аудио №4: русский / AC3 / 5.1 / 48 kHz / 640 kbps / || |Одноголосый закадровый, А.Гаврилов|
Аудио №5: английский / DTS-HD / 48 kHz / 4984 kbps / 24 bit |Оригинал|
Навигация по главам: есть
General
Unique ID : 180254454582289286618947242329761630558 (0x879BBEC363F5F557B1C973F5D4CFC95E)
Complete name : Ender's Game (2013) 2160p UltraHD BluRay HEVC x265 DTS-HD 7.1 3xRus.Eng.mkv
Format : Matroska
Format version : Version 4 / Version 2
File size : 24.7 GiB
Duration : 1 h 53 min
Overall bit rate : 31.1 Mb/s
Movie name : Ender's Game (2013) - Release for HDCLUB
Encoded date : UTC 2017-02-12 07:58:17
Writing application : mkvmerge v9.8.0 ('Kuglblids') 64bit
Writing library : libebml v1.3.4 + libmatroska v1.4.5

Video
ID : 1
Format : HEVC
Format/Info : High Efficiency Video Coding
Format profile : Main@L5@Main
Codec ID : V_MPEGH/ISO/HEVC
Duration : 1 h 53 min
Bit rate : 24.2 Mb/s
Width : 3 840 pixels
Height : 1 600 pixels
Display aspect ratio : 2.40:1
Frame rate mode : Constant
Frame rate : 23.976 (24000/1001) FPS
Color space : YUV
Chroma subsampling : 4:2:0
Bit depth : 8 bits
Bits/(Pixel*Frame) : 0.164
Stream size : 19.2 GiB (78%)
Writing library : x265 1.9:[Windows][GCC 4.9.0][64 bit] 8bit
Encoding settings : wpp / ctu=64 / min-cu-size=8 / max-tu-size=32 / tu-intra-depth=1 / tu-inter-depth=1 / me=1 / subme=2 / merange=57 / no-rect / no-amp / max-merge=2 / temporal-mvp / no-early-skip / rdpenalty=0 / no-tskip / no-tskip-fast / strong-intra-smoothing / no-lossless / no-cu-lossless / no-constrained-intra / no-fast-intra / open-gop / no-temporal-layers / interlace=0 / keyint=240 / min-keyint=24 / scenecut=40 / rc-lookahead=20 / lookahead-slices=8 / bframes=4 / bframe-bias=0 / b-adapt=2 / ref=3 / limit-refs=3 / no-limit-modes / weightp / no-weightb / aq-mode=1 / qg-size=32 / aq-strength=1.00 / cbqpoffs=0 / crqpoffs=0 / rd=3 / psy-rd=2.00 / rdoq-level=0 / psy-rdoq=0.00 / signhide / deblock / sao / no-sao-non-deblock / b-pyramid / cutree / no-intra-refresh / rc=abr / bitrate=25000 / qcomp=0.60 / qpmin=0 / qpmax=51 / qpstep=4 / ipratio=1.40 / pbratio=1.30
Default : Yes
Forced : No
Color range : Limited
Color primaries : BT.709
Transfer characteristics : BT.709
Matrix coefficients : BT.709

Audio #1
ID : 2
Format : AC-3
Format/Info : Audio Coding 3
Mode extension : CM (complete main)
Format settings, Endianness : Big
Codec ID : A_AC3
Duration : 1 h 53 min
Bit rate mode : Constant
Bit rate : 384 kb/s
Channel(s) : 6 channels
Channel positions : Front: L C R, Side: L R, LFE
Sampling rate : 48.0 kHz
Frame rate : 31.250 FPS (1536 spf)
Compression mode : Lossy
Delay relative to video : -1 s 583 ms
Stream size : 313 MiB (1%)
Title : DUB 5.1
Language : Russian
Default : Yes
Forced : No

Audio #2
ID : 3
Format : AC-3
Format/Info : Audio Coding 3
Mode extension : CM (complete main)
Format settings, Endianness : Big
Codec ID : A_AC3
Duration : 1 h 53 min
Bit rate mode : Constant
Bit rate : 192 kb/s
Channel(s) : 2 channels
Channel positions : Front: L R
Sampling rate : 48.0 kHz
Frame rate : 31.250 FPS (1536 spf)
Compression mode : Lossy
Delay relative to video : -1 s 583 ms
Stream size : 156 MiB (1%)
Title : THT
Language : Russian
Default : No
Forced : No

Audio #3
ID : 4
Format : AC-3
Format/Info : Audio Coding 3
Mode extension : CM (complete main)
Format settings, Endianness : Big
Codec ID : A_AC3
Duration : 1 h 53 min
Bit rate mode : Constant
Bit rate : 640 kb/s
Channel(s) : 6 channels
Channel positions : Front: L C R, Side: L R, LFE
Sampling rate : 48.0 kHz
Frame rate : 31.250 FPS (1536 spf)
Compression mode : Lossy
Delay relative to video : -1 s 583 ms
Stream size : 521 MiB (2%)
Title : V.Gorchakov
Language : Russian
Default : No
Forced : No

Audio #4
ID : 5
Format : AC-3
Format/Info : Audio Coding 3
Mode extension : CM (complete main)
Format settings, Endianness : Big
Codec ID : A_AC3
Duration : 1 h 53 min
Bit rate mode : Constant
Bit rate : 640 kb/s
Channel(s) : 6 channels
Channel positions : Front: L C R, Side: L R, LFE
Sampling rate : 48.0 kHz
Frame rate : 31.250 FPS (1536 spf)
Compression mode : Lossy
Delay relative to video : -1 s 583 ms
Stream size : 521 MiB (2%)
Title : A.Gavrilov
Language : Russian
Default : No
Forced : No

Audio #5
ID : 6
Format : DTS
Format/Info : Digital Theater Systems
Format profile : MA / Core
Mode : 16
Format settings, Endianness : Big
Codec ID : A_DTS
Duration : 1 h 53 min
Bit rate mode : Variable / Constant
Bit rate : 4 985 kb/s / 1 509 kb/s
Channel(s) : 8 channels / 6 channels
Channel positions : Front: L C R, Side: L R, Back: L R, LFE / Front: L C R, Side: L R, LFE
Sampling rate : 48.0 kHz
Frame rate : 93.750 FPS (512 spf)
Bit depth : 24 bits
Compression mode : Lossless / Lossy
Delay relative to video : -1 s 578 ms
Stream size : 3.96 GiB (16%)
Language : English
Default : No
Forced : No

Text #1
ID : 7
Format : UTF-8
Codec ID : S_TEXT/UTF8
Codec ID/Info : UTF-8 Plain Text
Duration : 1 h 44 min
Bit rate : 83 b/s
Count of elements : 1286
Stream size : 63.8 KiB (0%)
Title : voronine
Language : Russian
Default : No
Forced : No

Text #2
ID : 8
Format : UTF-8
Codec ID : S_TEXT/UTF8
Codec ID/Info : UTF-8 Plain Text
Duration : 1 h 44 min
Bit rate : 55 b/s
Count of elements : 1473
Stream size : 42.3 KiB (0%)
Title : eng-sub
Language : English
Default : No
Forced : No

Text #3
ID : 9
Format : UTF-8
Codec ID : S_TEXT/UTF8
Codec ID/Info : UTF-8 Plain Text
Duration : 1 h 44 min
Bit rate : 60 b/s
Count of elements : 1646
Stream size : 46.1 KiB (0%)
Title : eng-sub (SDH)
Language : English
Default : No
Forced : No

Text #4
ID : 10
Format : PGS
Muxing mode : zlib
Codec ID : S_HDMV/PGS
Codec ID/Info : Picture based subtitle format used on BDs/HD-DVDs
Duration : 1 h 44 min
Bit rate : 11.1 kb/s
Count of elements : 2951
Stream size : 8.28 MiB (0%)
Language : English
Default : No
Forced : No

Text #5
ID : 11
Format : PGS
Muxing mode : zlib
Codec ID : S_HDMV/PGS
Codec ID/Info : Picture based subtitle format used on BDs/HD-DVDs
Duration : 1 h 44 min
Bit rate : 12.6 kb/s
Count of elements : 3293
Stream size : 9.40 MiB (0%)
Language : English
Default : No
Forced : No

Text #6
ID : 12
Format : PGS
Muxing mode : zlib
Codec ID : S_HDMV/PGS
Codec ID/Info : Picture based subtitle format used on BDs/HD-DVDs
Duration : 1 h 44 min
Bit rate : 10.6 kb/s
Count of elements : 2740
Stream size : 7.89 MiB (0%)
Language : Spanish
Default : No
Forced : No

Menu #1
00:00:00.000 : en:00:00:00.000
00:06:10.579 : en:00:06:10.579
00:14:18.566 : en:00:14:18.566
00:19:06.145 : en:00:19:06.145
00:28:07.144 : en:00:28:07.144
00:33:22.667 : en:00:33:22.667
00:39:34.664 : en:00:39:34.664
00:45:43.407 : en:00:45:43.407
00:53:37.714 : en:00:53:37.714
01:02:15.607 : en:01:02:15.607
01:09:21.949 : en:01:09:21.949
01:15:16.887 : en:01:15:16.887
01:23:38.305 : en:01:23:38.305
01:30:54.824 : en:01:30:54.824
01:35:43.279 : en:01:35:43.279
01:41:12.858 : en:01:41:12.858

Menu #2
00:00:00.000 : en:00:00:00.000
00:06:10.579 : en:00:06:10.579
00:14:18.566 : en:00:14:18.566
00:19:06.145 : en:00:19:06.145
00:28:07.144 : en:00:28:07.144
00:33:22.667 : en:00:33:22.667
00:39:34.664 : en:00:39:34.664
00:45:43.407 : en:00:45:43.407
00:53:37.714 : en:00:53:37.714
01:02:15.607 : en:01:02:15.607
01:09:21.949 : en:01:09:21.949
01:15:16.887 : en:01:15:16.887
01:23:38.305 : en:01:23:38.305
01:30:54.824 : en:01:30:54.824
01:35:43.279 : en:01:35:43.279
01:41:12.858 : en:01:41:12.858


Скриншоты piratbit.pw



Скачать Игра Эндера через торрент http://i89.fastpic.ru/big/2017/0226/e7/fd5b231be8e848f0c35699a1ed5a57e7.png Скачать фильм Игра Эндера через торрент бесплантно в хорошем качестве Описание: Действие происходит в 2135 году. Человечество пережило два вторжения инопланетной расы «жукеров», лишь чудом уцелев, и готовится ... 10 10 6
Торрент: Зарегистрирован [2017-02-26 09:12] · скачан: 128 раз
Статус: √ проверено
Размер: 24.69 GB
Как cкачать? Как скачать Игра Эндера через торрент | qTorrent

28-11-2019 20:33  

Отключить всю рекламу на сайте

    Дорогой пользователь! Огромная просьба, поблагодарите релизера, оцените раздачу и оставьте свои комментарий, если Вы скачали Игра Эндера через торрент бесплатно! Внесите свою лепту в развитие PiratBit!
    Комментировать посты могут только пользователи прошедшие не сложную регистрацию
    Показать сообщения:    

    Игра Эндера через торрент
    Скачать бесплатно Игра Эндера
    Игра Эндера скачать торрент
    Игра Эндера смотреть онлайн
    Cкачать фильм Игра Эндера бесплатно
    Игра Эндера скачать торрент в хорошем качестве
    Игра Эндера смотреть онлайн бесплатно в хорошем качестве


    Вы не можете начинать темы
    Вы не можете отвечать на сообщения
    Вы не можете редактировать свои сообщения
    Вы не можете удалять свои сообщения
    Вы не можете голосовать в опросах
    Вы не можете прикреплять файлы к сообщениям
    Вы можете скачивать файлы