Ссылка на приватное зеркало нашего сайта всего за 1$. Внимание количество ограничено!!!

2 сезон

iTunes

iTunes

1

iTunes

iTunes

iTunes

WEBRip

iTunes

30
pack

Новость дня

ВАЖНО

!!Акция!!

Alien_RageХит недели

RePack

Horizon Zero Dawn

ИГРА 18+

pack

RePack

jed

!!Акция!!

Alien_Rage

RePack

fifa19

RePack

Assassins Creed: Odyssey

RePack

NEED FOR SPEED™ PAYBACK

4 сезон

9 сезон

Бесстыжие 9 сезон

Все сериалы

все сериалы на PB.wtf

RePack

FAR CRY 5
  

Жить (Юрий Быков) [2010, триллер, драма, криминал, WEB-DL 1080p] Не требуется [Русский] piratbit.pw

Жить через торрент piratbit.pw

Размер: 1.25 GB | Добавлен: 3 года 6 мес. назад | Торрент скачан:281 раз
Скачать  

24-02-2017 17:16 Жить Скачать торрент  

Жить

Год выпуска: 2010
Страна: Россия
Жанр: Триллер, драма, криминал

Продолжительность: 01:11:57
Перевод: Не требуется [Русский]
Режиссер: Юрий Быков
В ролях: Денис Шведов (Андрей), Владислав Толдыков (Михаил), Алексей Комашко (Сергей), Константин Стрельников (Олег), Сергей Жарков (Иван), Сергей Сосновский (старик), Сергей Беляев (рыбак)
Описание:
Дикие места. Трое преследуют пожилого охотника и молодого парня. Один - проводник, второй - боец. Незнакомые, чуждые друг другу люди должны вместе выжить и добраться до города. Какова цена жизни? На этот вопрос каждый ответит по-своему.



Качество: WEB-DL 1080p
Формат: MKV
Видео: AVC, 1920x1080 (16:9), 2298 kbps, 25 fps, 0,044 bpp
Аудио: AC3 / 2.0 / 44 kHz / 192 kbps /

General
Unique ID Жить (2010).mkv
Format : Matroska
Format version : Version 4 / Version 2
File size : 1.25 GiB
Duration : 1 h 11 min
Overall bit rate : 2 493 kb/s
Encoded date : UTC 2017-02-14 12:49:05
Writing application : mkvmerge v9.8.0 ('Kuglblids') 64bit
Writing library : libebml v1.3.4 + libmatroska v1.4.5 / Lavf57.25.100

Video
ID : 1
Format : AVC
Format/Info : Advanced Video Codec
Format profile : High@L4
Format settings, CABAC : Yes
Format settings, ReFrames : 3 frames
Codec ID : V_MPEG4/ISO/AVC
Duration : 1 h 11 min
Bit rate : 2 299 kb/s
Width : 1 920 pixels
Height : 1 080 pixels
Display aspect ratio : 16:9
Frame rate mode : Constant
Frame rate : 25.000 FPS
Color space : YUV
Chroma subsampling : 4:2:0
Bit depth : 8 bits
Scan type : Progressive
Bits/(Pixel*Frame) : 0.044
Stream size : 1.16 GiB (92%)
Default : Yes
Forced : No
Color range : Limited
Color primaries : BT.709
Transfer characteristics : BT.709
Matrix coefficients : BT.709

Audio
ID : 2
Format : AC-3
Format/Info : Audio Coding 3
Mode extension : CM (complete main)
Format settings, Endianness : Big
Codec ID : A_AC3
Duration : 1 h 11 min
Bit rate mode : Constant
Bit rate : 192 kb/s
Channel(s) : 2 channels
Channel positions : Front: L R
Sampling rate : 44.1 kHz
Frame rate : 28.711 FPS (1536 spf)
Compression mode : Lossy
Delay relative to video : -40 ms
Stream size : 98.8 MiB (8%)
Default : Yes
Forced : No
piratbit.pw



Скачать Жить через торрент http://i3.imageban.ru/out/2017/02/24/b2fd6637295e9dab4c10c068f14430cb.jpg Скачать фильм Жить через торрент бесплантно в хорошем качестве Описание: Дикие места. Трое преследуют пожилого охотника и молодого парня. Один - проводник, второй - боец. Незнакомые, чуждые друг другу ... 9.6 10 10
Торрент: Зарегистрирован [2017-02-24 17:16] · скачан: 281 раз
Статус: √ проверено
Размер: 1.25 GB
Как cкачать? Как скачать Жить через торрент | qTorrent

% Раздел Тема Автор DL S | L
Металл (mp3) [ 125 MB ] Кипелов - Жить вопреки - 2011 MP3 320 kbps azagoth_666 Скачать
2 | 0
Фильмы 2013 (Звук TS, Cam, VO, DVO) [ 708 MB ] Желание жить / Chce sie zyc [2013 Польша DVDRipЛюбительский KEYS Скачать
1 | 0
Фантастика [ 850 MB ] Дмитрий Рус - Играть чтобы жить 5. Битва [Геннадий Коршунов 2015 192 kbps MP3] govoryn Скачать
1 | 0
Фантастика [ 93 MB ] Дмитрий Рус - Играть чтобы жить 7. Исход [Геннадий Коршунов Дмитрий Рус 2015 192 kbps MP3] govoryn Скачать
1 | 0
Клипы [ 224 MB ] Виктория Дайнеко - Жить вдвоём [2015 Pop WEB-DL 1080p] opupokin Скачать
1 | 0
Наши фильмы, до 2010 [ 1.8 GB ] Тридцатого уничтожить [1992 TVRip] Оригинал Бумер Скачать
1 | 0
Фантастика [ 791 MB ] Дмитрий Рус - Играть чтобы жить: Инферно [Геннадий Коршунов 2015 192 kbps MP3] Энитан Скачать
1 | 0

28-11-2019 20:33  

Отключить всю рекламу на сайте

25-02-2017 11:19 Жить Скачать торрент  

очень крутой фильм! +10piratbit.pw



    Дорогой пользователь! Огромная просьба, поблагодарите релизера, оцените раздачу и оставьте свои комментарий, если Вы скачали Жить через торрент бесплатно! Внесите свою лепту в развитие PiratBit!
    Комментировать посты могут только пользователи прошедшие не сложную регистрацию
    Показать сообщения:    

    Жить через торрент
    Скачать бесплатно Жить
    Жить скачать торрент
    Жить смотреть онлайн
    Cкачать фильм Жить бесплатно
    Жить скачать торрент в хорошем качестве
    Жить смотреть онлайн бесплатно в хорошем качестве


    Вы не можете начинать темы
    Вы не можете отвечать на сообщения
    Вы не можете редактировать свои сообщения
    Вы не можете удалять свои сообщения
    Вы не можете голосовать в опросах
    Вы не можете прикреплять файлы к сообщениям
    Вы можете скачивать файлы