Ссылка на приватное зеркало нашего сайта всего за 1$. Внимание количество ограничено!!!

2 сезон

iTunes

iTunes

1

iTunes

iTunes

iTunes

WEBRip

iTunes

30
pack

Новость дня

ВАЖНО

!!Акция!!

Alien_RageХит недели

RePack

Horizon Zero Dawn

ИГРА 18+

pack

RePack

jed

!!Акция!!

Alien_Rage

RePack

fifa19

RePack

Assassins Creed: Odyssey

RePack

NEED FOR SPEED™ PAYBACK

4 сезон

9 сезон

Бесстыжие 9 сезон

Все сериалы

все сериалы на PB.wtf

RePack

FAR CRY 5
  

Вселенский заговор (Владимир Янковский) [2016, детектив, мелодрама, WEB-DLRip 1080p] Не требуется [Русский] piratbit.pw

Вселенский заговор через торрент piratbit.pw

Размер: 1.47 GB | Добавлен: 3 года 6 мес. назад | Торрент скачан:66 раз
Скачать  

24-02-2017 15:01 Вселенский заговор Скачать торрент  

Вселенский заговор

Год выпуска: 2016
Страна: Россия
Жанр: детектив, мелодрама
Продолжительность: 01:33:25
Перевод: Не требуется [Русский]
Режиссер: Владимир Янковский
В ролях: Мария Иващенко (Маруся), Ярослав Жалнин (Гриша), Кирилл Кузнецов (Антон), Анна Большова (Маргарита), Валерий Баринов (Сергей Сергеевич Астров), Игорь Гордин (Михаил Николаевич Воскресенский), Евгений Никитин (Сергей Витальевич), Олег Гарбуз (Игнат), Алексей Войтюк (Юрий Фёдорович Басалаев), Анастасия Михайлова (Агриппина), Кристина Дробыш (Даша), Ирина Нарбекова
Описание:
«Конец света близок, грядет нашествие инопланетян, и изменить уже ничего нельзя». Нет, это не реклама фантастического блокбастера, а фрагмент научно-популярного фильма, на показ которого Гриша пригласил Марусю в планетарий. Конца света не случилось, но в коридоре нашли труп уфолога Юрия Федоровича. Маруся, обожающая детективные расследования, на пару с Гришей приходит к выводу: ученого убили, и вовсе не пришельцы.



Качество: WEB-DLRip 1080p
Формат: MKV
Видео: AVC, 1920x1080 (16:9), 2055 kbps, 25 fps, 0,040 bpp
Аудио: AC3 / 2.0 / 44 kHz / 192 kbps /

General
Unique ID Вселенскии? заговор (2016) .mkv
Format : Matroska
Format version : Version 4 / Version 2
File size : 1.47 GiB
Duration : 1 h 33 min
Overall bit rate : 2 249 kb/s
Encoded date : UTC 2017-02-22 12:35:17
Writing application : mkvmerge v9.9.0 ('Pick Up') 64bit
Writing library : libebml v1.3.4 + libmatroska v1.4.5 / Lavf57.25.100

Video
ID : 1
Format : AVC
Format/Info : Advanced Video Codec
Format profile : High@L4
Format settings, CABAC : Yes
Format settings, ReFrames : 3 frames
Codec ID : V_MPEG4/ISO/AVC
Duration : 1 h 33 min
Bit rate : 2 055 kb/s
Width : 1 920 pixels
Height : 1 080 pixels
Display aspect ratio : 16:9
Frame rate mode : Constant
Frame rate : 25.000 FPS
Color space : YUV
Chroma subsampling : 4:2:0
Bit depth : 8 bits
Scan type : Progressive
Bits/(Pixel*Frame) : 0.040
Stream size : 1.34 GiB (91%)
Default : Yes
Forced : No
Color range : Limited
Color primaries : BT.709
Transfer characteristics : BT.709
Matrix coefficients : BT.709

Audio
ID : 2
Format : AC-3
Format/Info : Audio Coding 3
Mode extension : CM (complete main)
Format settings, Endianness : Big
Codec ID : A_AC3
Duration : 1 h 33 min
Bit rate mode : Constant
Bit rate : 192 kb/s
Channel(s) : 2 channels
Channel positions : Front: L R
Sampling rate : 44.1 kHz
Frame rate : 28.711 FPS (1536 spf)
Compression mode : Lossy
Delay relative to video : -40 ms
Stream size : 128 MiB (9%)
Default : Yes
Forced : No
piratbit.pw



Скачать Вселенский заговор через торрент http://i3.imageban.ru/out/2017/02/24/9c294b7b2882436f1700d016686a1fb0.jpg Скачать фильм Вселенский заговор через торрент бесплантно в хорошем качестве Описание: «Конец света близок, грядет нашествие инопланетян, и изменить уже ничего нельзя». Нет, это не реклама фантастического ... 9 10 3
Торрент: Зарегистрирован [2017-02-24 15:01] · скачан: 66 раз
Статус: T временная
Размер: 1.47 GB
Как cкачать? Как скачать Вселенский заговор через торрент | qTorrent

% Раздел Тема Автор DL S | L
Детективы, Боевики, Триллеры [ 222 MB ] Татьяна Устинова - Вселенский заговор [Геннадий Смирнов 2016 128 kbps MP3] Бумер Скачать
1 | 0

28-11-2019 20:33  

Отключить всю рекламу на сайте

    Дорогой пользователь! Огромная просьба, поблагодарите релизера, оцените раздачу и оставьте свои комментарий, если Вы скачали Вселенский заговор через торрент бесплатно! Внесите свою лепту в развитие PiratBit!
    Комментировать посты могут только пользователи прошедшие не сложную регистрацию
    Показать сообщения:    

    Вселенский заговор через торрент
    Скачать бесплатно Вселенский заговор
    Вселенский заговор скачать торрент
    Вселенский заговор смотреть онлайн
    Cкачать фильм Вселенский заговор бесплатно
    Вселенский заговор скачать торрент в хорошем качестве
    Вселенский заговор смотреть онлайн бесплатно в хорошем качестве


    Вы не можете начинать темы
    Вы не можете отвечать на сообщения
    Вы не можете редактировать свои сообщения
    Вы не можете удалять свои сообщения
    Вы не можете голосовать в опросах
    Вы не можете прикреплять файлы к сообщениям
    Вы можете скачивать файлы