1 сезон

1 сезон

iTunes

1

КиноПоиск HD

Кинопоиск HD

iTunes

13

1 сезон

RePack

30

Новинка

ВАЖНО

ИГРА 18+

pack

RePack

MK11
pack

Легкие деньги

RePack

jed

RePack

fifa19

RePack

RDR2

RePack

NEED FOR SPEED™ PAYBACK

4 сезон

9 сезон

Бесстыжие 9 сезон

Все сериалы

все сериалы на PB.wtf

RePack

FAR CRY 5
  
Magnet ссылка

Замужняя женщина / Une Femme Mariee (Жан-Люк Годар) [1964, драма, BDRip 720p by msltel] AVO piratbit.pw

Замужняя женщина через торрент piratbit.pw

Размер: 4.79 GB | Добавлен: 4 года 2 мес. назад | Торрент скачан:7 раз
Скачать  

23-02-2017 09:29 Замужняя женщина Скачать торрент  

Название: Замужняя женщина
Оригинальное название: Une Femme Mariee
Год выпуска: 1964
Страна: Франция
Жанр: драма
Продолжительность: 01:35:13
Перевод: авторский

Режиссёр: Жан-Люк Годар

В ролях: Маша Мериль, Бернард Ноэль, Филипп Леруа, Кристоф Бурсейе, Роже Ленардт, Маргарет Ле Ван, Вероника Дювал, Рита Мэйден, Жан-Люк Годар, Жорж Лирон

Описание: Фильм состоит из семи разнородных эпизодов, которые все вместе составляют один день из жизни женщины по имени Шарлот. У Шарлот есть муж и есть любовник. Каждому из них она признаётся в любви и каждому, вроде бы, искренне. Но выбрать надо кого-то одного. О чём думает женщина, оказавшаяся "меж двух берегов", чего она боится, по каким критериям оценивает обоих своих мужчин?...



Качество: BDRip 720p
Формат: MKV
Видео: MPEG-4 AVC, 6808 Кбит/с, 954x720, 23,976 кадра/с
Аудио 1: русский, AC3, 192 kbps, 1 ch, 48 kHz [авторский, Антон Алексеев]
Аудио 2: английский, AC3, 192 kbps, 1 ch, 48 kHz [оригинал]
Субтитры 1: русские (аltеrеоs)
Субтитры 2: английские
Имеются неименованные главы/чаптеры.
Общее
Уникальный идентификатор : 198585189003556790167504940379661576007 (0x95661DBF5F90E196B837A3647276A747)
Полное имя : D:\Video\Замужняя женщина.1964.BDRip.720p by msltel.mkv
Формат : Matroska
Версия формата : Version 4 / Version 2
Размер файла : 4,79 Гбайт
Продолжительность : 1 ч. 35 м.
Общий поток : 7194 Кбит/сек
Название фильма : Rip by msltel
Дата кодирования : UTC 2017-02-23 06:31:54
Программа кодирования : mkvmerge v8.2.0 ('World of Adventure') 64bit
Библиотека кодирования : libebml v1.3.1 + libmatroska v1.4.2

Видео
Идентификатор : 1
Формат : AVC
Формат/Информация : Advanced Video Codec
Профиль формата : High@L4.1
Параметр CABAC формата : Да
Параметр ReFrames формата : 9 кадров
Идентификатор кодека : V_MPEG4/ISO/AVC
Продолжительность : 1 ч. 35 м.
Битрейт : 6808 Кбит/сек
Ширина : 954 пикселя
Высота : 720 пикселей
Соотношение сторон : 4:3
Режим частоты кадров : Постоянный
Частота кадров : 23,976 (24000/1001) кадра/сек
Цветовое пространство : YUV
Субдискретизация насыщенности : 4:2:0
Битовая глубина : 8 бит
Тип развёртки : Прогрессивная
Бит/(Пиксели*Кадры) : 0.413
Размер потока : 4,53 Гбайт (95%)
Библиотека кодирования : x264 core 146 r2538 121396c
Настройки программы : cabac=1 / ref=9 / deblock=1:-3:-2 / analyse=0x3:0x113 / me=umh / subme=11 / psy=1 / psy_rd=1.00:0.15 / mixed_ref=1 / me_range=32 / chroma_me=1 / trellis=2 / 8x8dct=1 / cqm=0 / deadzone=21,11 / fast_pskip=0 / chroma_qp_offset=-3 / threads=6 / lookahead_threads=1 / sliced_threads=0 / nr=0 / decimate=1 / interlaced=0 / bluray_compat=0 / constrained_intra=0 / bframes=12 / b_pyramid=2 / b_adapt=2 / b_bias=0 / direct=1 / weightb=1 / open_gop=0 / weightp=2 / keyint=230 / keyint_min=23 / scenecut=40 / intra_refresh=0 / rc_lookahead=40 / rc=crf / mbtree=0 / crf=21.0 / qcomp=0.60 / qpmin=0 / qpmax=69 / qpstep=4 / vbv_maxrate=62500 / vbv_bufsize=78125 / crf_max=0.0 / nal_hrd=none / filler=0 / ip_ratio=1.40 / pb_ratio=1.30 / aq=1:1.00
Язык : French
Default : Да
Forced : Нет

Аудио #1
Идентификатор : 2
Формат : AC-3
Формат/Информация : Audio Coding 3
Расширение режима : CM (complete main)
Параметр Endianness формата : Big
Идентификатор кодека : A_AC3
Продолжительность : 1 ч. 35 м.
Вид битрейта : Постоянный
Битрейт : 192 Кбит/сек
Каналы : 1 канал
Расположение каналов : Front: C
Частота : 48,0 КГц
Частота кадров : 31,250 кадров/сек (1536 spf)
Битовая глубина : 16 бит
Метод сжатия : С потерями
Размер потока : 131 Мбайт (3%)
Заголовок : AVO (Антон Алексеев)
Язык : Russian
Default : Да
Forced : Нет

Аудио #2
Идентификатор : 3
Формат : AC-3
Формат/Информация : Audio Coding 3
Расширение режима : CM (complete main)
Параметр Endianness формата : Big
Идентификатор кодека : A_AC3
Продолжительность : 1 ч. 35 м.
Вид битрейта : Постоянный
Битрейт : 192 Кбит/сек
Каналы : 1 канал
Расположение каналов : Front: C
Частота : 48,0 КГц
Частота кадров : 31,250 кадров/сек (1536 spf)
Битовая глубина : 16 бит
Метод сжатия : С потерями
Размер потока : 131 Мбайт (3%)
Заголовок : original
Язык : French
Default : Нет
Forced : Нет

Текст #1
Идентификатор : 4
Формат : UTF-8
Идентификатор кодека : S_TEXT/UTF8
Идентификатор кодека/Информация : UTF-8 Plain Text
Продолжительность : 1 ч. 34 м.
Битрейт : 99 бит/сек
Count of elements : 1159
Размер потока : 69,4 Кбайт (0%)
Заголовок : русские (аltеrеоs)
Язык : Russian
Default : Нет
Forced : Нет

Текст #2
Идентификатор : 5
Формат : UTF-8
Идентификатор кодека : S_TEXT/UTF8
Идентификатор кодека/Информация : UTF-8 Plain Text
Продолжительность : 1 ч. 34 м.
Битрейт : 56 бит/сек
Count of elements : 1160
Размер потока : 39,1 Кбайт (0%)
Заголовок : английские
Язык : English
Default : Нет
Forced : Нет

Меню
00:00:00.000 : :Chapter 01
00:00:51.467 : :Chapter 02
00:06:29.721 : :Chapter 03
00:12:54.940 : :Chapter 04
00:15:56.413 : :Chapter 05
00:18:11.214 : :Chapter 06
00:22:20.672 : :Chapter 07
00:28:33.960 : :Chapter 08
00:30:33.789 : :Chapter 09
00:33:08.068 : :Chapter 10
00:36:36.693 : :Chapter 11
00:40:22.960 : :Chapter 12
00:41:02.418 : :Chapter 13
00:46:36.210 : :Chapter 14
00:54:38.315 : :Chapter 15
00:59:43.371 : :Chapter 16
01:02:41.756 : :Chapter 17
01:04:44.088 : :Chapter 18
01:08:48.207 : :Chapter 19
01:11:40.087 : :Chapter 20
01:16:21.076 : :Chapter 21
01:21:30.341 : :Chapter 22
01:26:04.742 : :Chapter 23
01:30:49.277 : :Chapter 24
piratbit.pw



Скачать Замужняя женщина через торрент http://s019.radikal.ru/i613/1702/f3/6860d9e69b53.jpg Скачать фильм Замужняя женщина через торрент бесплантно в хорошем качестве Описание: Фильм состоит из семи разнородных эпизодов, которые все вместе составляют один день из жизни женщины по имени Шарлот. У Шарлот ... 5 10 1
Info! Золотая раздача, скачанное не засчитывается.
Торрент: Зарегистрирован [2017-02-23 09:29] · скачан: 7 раз
Статус: √ проверено
Размер: 4.79 GB
Как cкачать? Как скачать Замужняя женщина через торрент | UTorrent

% Раздел Тема Автор DL S | L
Фильмы с авторской озвучкой [ 10.76 GB ] Замужняя женщина / Une Femme Mariee [1964 BDRip 1080p by msltel] AVO msltel Скачать
1 | 0

28-11-2019 20:33  

Отключить всю рекламу на сайте

    Дорогой пользователь! Огромная просьба, поблагодарите релизера, оцените раздачу и оставьте свои комментарий, если Вы скачали Замужняя женщина через торрент бесплатно! Внесите свою лепту в развитие PiratBit!
    Комментировать посты могут только пользователи прошедшие не сложную регистрацию
    Показать сообщения:    

    Замужняя женщина через торрент
    Скачать бесплатно Замужняя женщина
    Замужняя женщина скачать торрент
    Замужняя женщина смотреть онлайн
    Cкачать фильм Замужняя женщина бесплатно
    Замужняя женщина скачать торрент в хорошем качестве
    Замужняя женщина смотреть онлайн бесплатно в хорошем качестве


    Вы не можете начинать темы
    Вы не можете отвечать на сообщения
    Вы не можете редактировать свои сообщения
    Вы не можете удалять свои сообщения
    Вы не можете голосовать в опросах
    Вы не можете прикреплять файлы к сообщениям
    Вы можете скачивать файлы