Ссылка на приватное зеркало всего за 1$. Внимание количество ограничено!!!

iTunes

1+1

iTunes

мы

iTunes

1

iTunes

Джокер

Пифагор

Ведьмак / The Witcher сериал

iTunes

ПШазам

iTunes

Оно 2

iTunes

30
pack

Новость дня

ВАЖНО

!!Акция!!

Alien_RageХит недели

RePack

Resident Evil 21

ИГРА 18+

pack

RePack

jed

!!Акция!!

Alien_Rage

RePack

fifa19

RePack

Assassins Creed: Odyssey

RePack

NEED FOR SPEED™ PAYBACK

4 сезон

9 сезон

Бесстыжие 9 сезон

Все сериалы

все сериалы на PB.wtf

RePack

FAR CRY 5
  

Парфюмер: История одного убийцы / Perfume: The Story of a Murderer (Том Тыквер ) [2006, фэнтези, драма, криминал, UHD WEBRip 2160p] Дубляж - [Лицензия] piratbit.pw

Парфюмер: История одного убийцы через торрент piratbit.pw

Раздают: 1 [ 44 KB/s ]
Размер: 32.52 GB | Добавлен: 3 года 1 мес. назад | Торрент скачан:157 раз
Скачать  

14-02-2017 10:54 Парфюмер: История одного убийцы Скачать торрент  

Парфюмер: История одного убийцыPerfume: The Story of a Murderer«He lived to find beauty. He killed to possess it» Год выпуска: 2006
Страна: Германия, Франция, Испания, США
Жанр: фэнтези, драма, криминал
Продолжительность: 01:27:49
Перевод: Дубляж - [Лицензия]
Субтитры: русские, английские
Режиссер: Том Тыквер
В ролях: Бен Уишоу (Jean-Baptiste Grenouille), Дастин Хоффман (Giuseppe Baldini), Алан Рикман (Richis), Рейчел Херд-Вуд (Laura), Биргит Минихмайр (Grenouille's Mother), Шан Томас (Madame Gaillard), Тимоти Дэвис (Chenier), Дора Романо (Baldini's Wife), Сара Форестье (Jeanne), Дэвид Колдер (Bishop of Grasse), Джон Хёрт (рассказчик, озвучка), Франсеск Альбиоль (Court Official)
Описание:
Жестокий, никогда не знавший любви, сирота Жан-Батист Гренуй настоящих успехов достиг лишь на одном поприще - среди парфюмеров ему никогда не было равных. По его духам сходит с ума весь высший свет, не подозревая о том, какой страшной ценой будет получен последний, идеальный аромат.
Рейтинг:

MPAA: R - Лицам до 17 лет обязательно присутствие взрослого
Премьера (мир): 7 сентября 2006
Премьера (РФ): 14 сентября 2006, «West»
Качество: UHD WEBRip 2160p (Источник: ProRes HQ video capture from the UHD Blu-ray)
Формат: MKV
Видео: 3840x1634, 23.976 fps, HEVC, HDR, ~26.4 Mbps, 10bit
Аудио: русский, 48 kHz/16-bit, DTS 5.1, ~768 kbps | Дубляж
Аудио: украинский, 48 kHz/16-bit, AC3 5.1, ~384 kbps | Дубляж
Аудио: английский, 48 kHz/24-bit, DTS-HD MA 5.1, ~4032 kbps | Оригинал
Навигация по главам: Присутствует

Для просмотра HDR-контента необходим телевизор с поддержкой HDR. Просто запишите на usb-накопитель скачанное видео и установите его в ваш ТВ. На обычных дисплеях изображение будет выглядеть неконтрастным и обесцвеченным.

Решение этой проблемы в настоящий момент возможно на PC под ОС Windows, используя плейер, который поддерживает вывод изображение через рендер madvr (madVR), который может выполнять программную конверсию в цветовое пространство и гамму REC.709.

Мы рекомендуем PotPlayer (PotPlayer) или Media Player Classic Home Cinema (MPC-HC).

После установки рекомендованных плейеров необходимо отдельно установить madvr. Для этого скачайте с сайта архив, распакуйте его в удобное место и запустите install.bat от учетной записи администратора. После установки папку с содержимым не удалять! Если папку необходимо перенести в другое место, то после переноса необходимо снова запустить install.bat.
Для того, чтобы изображение выводилось посредством madvr, его необходимо выбрать в настройках плейера:скриншот   скриншот   скриншот   скриншот  Чтобы попасть в настройки madvr можно запустить madHcCtrl.exe из папки с установленной программой. В трее появится значок, кликнув ПКМ по которому выберите edit madvr settings. В potplayer вызов настроек возможен нажатием на … справа от выбранного madshi video renderer. Также значок будет появляться каждый раз при проигрывании видео.

Полное описание настроек madvr можно найти тут: http://forum.kodi.tv/showthread.php?tid=259188
Для корректного отображения HDR-контента необходимо выполнить эти рекомендации: http://forum.kodi.tv/showthread.php?tid=259188&pid=2238942#pid2238942
Параметр “this display’s peak nits” настраиваете на свое усмотрение. Рекомендуемые значения 120-250. Для наиболее яркой картинки можно установить значение 120, но в этом случае на некоторых видео могут пропадать детали на ярких участках изображения.

!!! Для каждого фильма в теме мы будет давать рекомендации значений, для получения картинки близкой по гамме к BD 1080p.
Сохранены оригинальные главы как на Blu-ray.
Fps UHD Blu-ray изменен с 24->23.976 по причине отсутствия HD звука с Blu-ray нужной продолжительности.
Рекомендуемые параметры для просмотра: this display’s peak nits: 500; color & gamma - enable gamma processing - pure power curve: 2.00.
General
Unique ID : 225180529452451813177116903381159455563 (0xA9683144D5062E2BA9FA65EEBC512B4B)
Complete name : Perfume.The.Story.of.a.Murderer.2006.2160p.UHD.BluRay.HDR.DTS-HD.MA5.1.x265-ULTRAHDCLUB.mkv
Format : Matroska
Format version : Version 4 / Version 2
File size : 32.5 GiB
Duration : 2 h 27 min
Overall bit rate : 31.6 Mb/s
Movie name : Perfume: The Story of a Murderer (2006) - Release for ULTRAHDCLUB
Encoded date : UTC 2017-02-04 00:22:05
Writing application : mkvmerge v9.3.1 ('Mask Machine') 64bit
Writing library : libebml v1.3.4 + libmatroska v1.4.5

Video
ID : 1
Format : HEVC
Format/Info : High Efficiency Video Coding
Format profile : Main 10@L5@Main
Codec ID : V_MPEGH/ISO/HEVC
Duration : 2 h 27 min
Bit rate : 26.4 Mb/s
Width : 3 840 pixels
Height : 1 634 pixels
Display aspect ratio : 2.35:1
Frame rate mode : Constant
Frame rate : 23.976 (23976/1000) FPS
Color space : YUV
Chroma subsampling : 4:2:0 (Type 2)
Bit depth : 10 bits
Bits/(Pixel*Frame) : 0.176
Stream size : 27.2 GiB (84%)
Title : Perfume: The Story of a Murderer (2006) - Release for ULTRAHDCLUB
Writing library : x265 2.2+2-998d4520d1cf:[Windows][GCC 6.2.0][64 bit] 10bit
Encoding settings : cpuid=1050111 / frame-threads=3 / numa-pools=12 / wpp / no-pmode / no-pme / no-psnr / no-ssim / log-level=2 / input-csp=1 / input-res=3840x1634 / interlace=0 / total-frames=0 / level-idc=0 / high-tier=1 / uhd-bd=0 / ref=1 / no-allow-non-conformance / repeat-headers / annexb / no-aud / no-hrd / info / hash=0 / no-temporal-layers / open-gop / min-keyint=23 / keyint=250 / bframes=3 / b-adapt=2 / b-pyramid / bframe-bias=0 / rc-lookahead=40 / lookahead-slices=0 / scenecut=40 / no-intra-refresh / ctu=32 / min-cu-size=8 / no-rect / no-amp / max-tu-size=32 / tu-inter-depth=1 / tu-intra-depth=1 / limit-tu=0 / rdoq-level=2 / signhide / no-tskip / nr-intra=0 / nr-inter=0 / no-constrained-intra / strong-intra-smoothing / max-merge=2 / limit-refs=0 / no-limit-modes / me=2 / subme=7 / merange=57 / temporal-mvp / weightp / weightb / no-analyze-src-pics / no-deblock / no-sao / no-sao-non-deblock / rd=6 / no-early-skip / no-rskip / fast-intra / no-tskip-fast / no-cu-lossless / no-b-intra / rdpenalty=0 / psy-rd=4.00 / psy-rdoq=8.00 / no-rd-refine / analysis-mode=0 / no-lossless / cbqpoffs=0 / crqpoffs=0 / rc=crf / crf=22.0 / qcomp=0.80 / qpstep=1 / stats-write=0 / stats-read=0 / ipratio=1.10 / pbratio=1.00 / aq-mode=3 / aq-strength=1.00 / no-cutree / zone-count=0 / no-strict-cbr / qg-size=32 / no-rc-grain / qpmax=51 / qpmin=0 / sar=0 / overscan=0 / videoformat=5 / range=0 / colorprim=9 / transfer=16 / colormatrix=9 / chromaloc=1 / chromaloc-top=2 / chromaloc-bottom=2 / display-window=0 / master-display=G(13250,34500)B(7500,3000)R(34000,16000)WP(15635,16450)L(10000000,50) / max-cll=0,0 / min-luma=0 / max-luma=1023 / log2-max-poc-lsb=8 / vui-timing-info / vui-hrd-info / slices=1 / opt-qp-pps / opt-ref-list-length-pps / no-multi-pass-opt-rps / scenecut-bias=0.05
Language : English
Default : Yes
Forced : No
Color range : Limited
Color primaries : BT.2020
Transfer characteristics : SMPTE ST 2084
Matrix coefficients : BT.2020 non-constant
Mastering display color primaries : R: x=0.680000 y=0.320000, G: x=0.265000 y=0.690000, B: x=0.150000 y=0.060000, White point: x=0.312700 y=0.329000
Mastering display luminance : min: 0.0050 cd/m2, max: 1000.0000 cd/m2

Audio #1
ID : 2
Format : DTS
Format/Info : Digital Theater Systems
Mode : 16
Format settings, Endianness : Big
Codec ID : A_DTS
Duration : 2 h 27 min
Bit rate mode : Constant
Bit rate : 755 kb/s
Channel(s) : 6 channels
Channel positions : Front: L C R, Side: L R, LFE
Sampling rate : 48.0 kHz
Frame rate : 93.750 FPS (512 spf)
Bit depth : 24 bits
Compression mode : Lossy
Stream size : 796 MiB (2%)
Title : DTS 5.1 @ 768 kbps - DUB, DVD R5
Language : Russian
Default : Yes
Forced : No

Audio #2
ID : 3
Format : AC-3
Format/Info : Audio Coding 3
Mode extension : CM (complete main)
Format settings, Endianness : Big
Codec ID : A_AC3
Duration : 2 h 27 min
Bit rate mode : Constant
Bit rate : 384 kb/s
Channel(s) : 6 channels
Channel positions : Front: L C R, Side: L R, LFE
Sampling rate : 48.0 kHz
Frame rate : 31.250 FPS (1536 spf)
Bit depth : 16 bits
Compression mode : Lossy
Stream size : 405 MiB (1%)
Title : AC3 5.1 @ 384 kbps - DUB, DVD R5
Language : Ukrainian
Default : No
Forced : No

Audio #3
ID : 4
Format : DTS
Format/Info : Digital Theater Systems
Format profile : MA / Core
Mode : 16
Format settings, Endianness : Big
Codec ID : A_DTS
Duration : 2 h 27 min
Bit rate mode : Variable / Constant
Bit rate : 4 032 kb/s / 1 509 kb/s
Channel(s) : 6 channels
Channel positions : Front: L C R, Side: L R, LFE
Sampling rate : 48.0 kHz
Frame rate : 93.750 FPS (512 spf)
Bit depth : 24 bits
Compression mode : Lossless / Lossy
Stream size : 4.15 GiB (13%)
Title : DTS-HD MA 5.1 @ 4032 kbps - Blu-ray POL
Language : English
Default : No
Forced : No

Text #1
ID : 5
Format : UTF-8
Codec ID : S_TEXT/UTF8
Codec ID/Info : UTF-8 Plain Text
Duration : 2 h 17 min
Bit rate : 47 b/s
Count of elements : 902
Stream size : 47.5 KiB (0%)
Language : Russian
Default : No
Forced : No

Text #2
ID : 6
Format : UTF-8
Codec ID : S_TEXT/UTF8
Codec ID/Info : UTF-8 Plain Text
Duration : 2 h 16 min
Bit rate : 28 b/s
Count of elements : 899
Stream size : 28.7 KiB (0%)
Language : English
Default : No
Forced : No

Menu
00:00:00.000 : en:00:00:00.000
00:04:08.747 : en:00:04:08.747
00:09:16.471 : en:00:09:16.471
00:12:10.187 : en:00:12:10.187
00:18:02.205 : en:00:18:02.205
00:27:41.660 : en:00:27:41.660
00:33:29.089 : en:00:33:29.089
00:43:56.842 : en:00:43:56.842
00:49:27.422 : en:00:49:27.422
00:58:21.706 : en:00:58:21.706
01:03:28.304 : en:01:03:28.304
01:08:19.929 : en:01:08:19.929
01:16:09.146 : en:01:16:09.146
01:21:56.536 : en:01:21:56.536
01:29:21.439 : en:01:29:21.439
01:36:42.128 : en:01:36:42.128
01:42:02.448 : en:01:42:02.448
01:47:58.305 : en:01:47:58.305
01:53:50.113 : en:01:53:50.113
01:56:57.342 : en:01:56:57.342
02:05:07.207 : en:02:05:07.207
02:11:20.872 : en:02:11:20.872
02:17:53.263 : en:02:17:53.263


Скриншоты piratbit.pw



Скачать Парфюмер: История одного убийцы через торрент http://i90.fastpic.ru/big/2017/0214/48/1dd397722eb97703cdda105e313f9c48.png Скачать фильм Парфюмер: История одного убийцы через торрент бесплантно в хорошем качестве Описание: Жестокий, никогда не знавший любви, сирота Жан-Батист Гренуй настоящих успехов достиг лишь на одном поприще - среди парфюмеров ... 10 10 9
Info! Золотая раздача, скачанное не засчитывается.
Торрент: Зарегистрирован [2017-02-14 10:54] · скачан: 157 раз
Статус: √ проверено
Размер: 32.52 GB
Как cкачать? Как скачать Парфюмер: История одного убийцы через торрент | qTorrent

% Раздел Тема Автор DL S | L
Ultra HD (UHD: 2K, 4K, 8K) — видео сверхвысокой чёткости [ 57.61 GB ] Парфюмер: история одного убийцы / Perfume: The Story of a Murderer [2006 UHD BDRemux 2160p] DUB +2xAVO bober100 Скачать
2 | 0
Фильмы [HD 720p, 1080p] (Хороший звук DUB, MVO) [ 7.95 GB ] Парфюмер: История одного убийцы / Perfume: The Story of a Murderer [2006 BDRip 720p] DUB AVO potroks Скачать
1 | 0
Фильмы [HD 720p, 1080p] (Хороший звук DUB, MVO) [ 4.37 GB ] Парфюмер: История одного убийцы / Perfume: The Story of a Murderer [2006 Германия Испания BDRip 720p от Leonardo] DUB Ворон Скачать
1 | 0
Фильмы 2006-2008 [ 2.36 GB ] Парфюмер: История одного убийцы / Perfume: The Story of a Murderer [2006 HDRip ] Dean24 Скачать
1 | 0
Фильмы (HD 720p, 1080p) (48-60 fps) [ 6.36 GB ] Парфюмер: История одного убийцы / Perfume: The Story of a Murderer [2006 Германия Испания BDRip 720p / 60 FPS ] от R.G. HD-Film СидБот60fps Скачать
1 | 0
Фильмы (HD 720p, 1080p) (48-60 fps) [ 9.07 GB ] Парфюмер: История одного убийцы / Perfume: The Story of a Murderer [2006 Германия Испания BDRip 1080p / 60 FPS ] от R.G. HD-Films СидБот60fps Скачать
1 | 0
Фильмы [HD 720p, 1080p] (Хороший звук DUB, MVO) [ 9.59 GB ] Парфюмер: История одного убийцы / Perfume: The Story of a Murderer [2006 BDRip 720p DUB лицензия] Зайчина Скачать
1 | 0

28-11-2019 20:33  

Отключить всю рекламу на сайте

14-02-2017 14:34 Парфюмер: История одного убийцы Скачать торрент  

Офигенный фильм по офигенной книге. Кто не читал - обязательно прочитайте, начнете - не оторветесь. В фильме многого нет.piratbit.pw



    Дорогой пользователь! Огромная просьба, поблагодарите релизера, оцените раздачу и оставьте свои комментарий, если Вы скачали Парфюмер: История одного убийцы через торрент бесплатно! Внесите свою лепту в развитие PiratBit!
    Комментировать посты могут только пользователи прошедшие не сложную регистрацию
    Показать сообщения:    

    Парфюмер: История одного убийцы через торрент
    Скачать бесплатно Парфюмер: История одного убийцы
    Парфюмер: История одного убийцы скачать торрент
    Парфюмер: История одного убийцы смотреть онлайн
    Cкачать фильм Парфюмер: История одного убийцы бесплатно
    Парфюмер: История одного убийцы скачать торрент в хорошем качестве
    Парфюмер: История одного убийцы смотреть онлайн бесплатно в хорошем качестве


    Вы не можете начинать темы
    Вы не можете отвечать на сообщения
    Вы не можете редактировать свои сообщения
    Вы не можете удалять свои сообщения
    Вы не можете голосовать в опросах
    Вы не можете прикреплять файлы к сообщениям
    Вы можете скачивать файлы