Ссылка на приватное зеркало всего за 1$. Внимание количество ограничено!!!

iTunes

iTunes

iTunes

1

iTunes

iTunes

iTunes

iTunes

iTunes

30
pack

Новость дня

ВАЖНО

!!Акция!!

Alien_RageХит недели

RePack

Resident Evil 21

ИГРА 18+

pack

RePack

jed

!!Акция!!

Alien_Rage

RePack

fifa19

RePack

Assassins Creed: Odyssey

RePack

NEED FOR SPEED™ PAYBACK

4 сезон

9 сезон

Бесстыжие 9 сезон

Все сериалы

все сериалы на PB.wtf

RePack

FAR CRY 5
  

Шпионы по соседству / Keeping Up with the Joneses (Грег Моттола ) [2016, боевик, комедия, UHD WEBRip 2160p] Дубляж - [Лицензия] piratbit.pw

Шпионы по соседству через торрент piratbit.pw

Размер: 54.62 GB | Добавлен: 3 года 1 мес. назад | Торрент скачан:90 раз
Скачать  

14-02-2017 10:07 Шпионы по соседству Скачать торрент  

Шпионы по соседствуKeeping Up with the Joneses«Лицензия на мокруху. Лицензия на бытовуху» Год выпуска: 2016
Страна: США
Жанр: боевик, комедия
Продолжительность: 01:27:49
Перевод: Дубляж - [Лицензия]
Субтитры: Русские
Режиссер: Грег Моттола
Сценарий: Майкл ЛеСьер
В ролях:
Зак Галифианакис (Jeff Gaffney), Айла Фишер (Karen Gaffney), Джон Хэмм (Tim Jones), Галь Гадот (Natalie Jones), Пэттон Освальт (Scorpion), Минг Жао (Scorpion's Girlfriend), Мэтт Уолш (Dan Craverston), Мэрибет Монро (Meg Craverston), Майкл Лью (Yang), Кевин Данн (Carl Pronger), Дайо Абаниканда (Cool Man), Генри Бостон (Patrick)
Описание:
Супружеская пара из пригорода оказывается втянутой в международный шпионский заговор, когда обнаруживает, что их, казалось бы, идеальные новые соседи являются правительственными агентами.
Рейтинг:

MPAA: PG-13 - Детям до 13 лет просмотр не желателен
Премьера (мир): 19 октября 2016
Премьера (РФ): 10 ноября 2016, «Двадцатый Век Фокс СНГ»
Качество: UHD WEBRip 2160p
Формат: MKV
Видео: V_MPEGH/ISO/HEVC, 3840x2160, 23,976 fps, 69,4 Mбит/с 0.349bpp
Аудио: Русский / AC3 / 5.1 ch / 48 kHz / 384 Кбит/с
Аудио: Английский / DTS / 5.1 ch / 48 kHz / 1509 Кбит/с
Навигация по главам: есть
Общее
Уникальный идентификатор : 230479336582150025425525099366230026029 (0xAD64B4A174764C44B26CF0E8D490672D)
Полное имя : Keeping Up With The Joneses 2016 2160p 4K UHD x265 .mkv
Формат : Matroska
Версия формата : Version 4 / Version 2
Размер файла : 54,6 Гбайт
Продолжительность : 1 ч. 45 м.
Общий поток : 74,0 Мбит/сек
Название фильма : Шпионы по соседству 2016 Dub Rus iTunes BDRip 1080p By Magnetto 83
Дата кодирования : UTC 2017-02-09 08:10:48
Программа кодирования : mkvmerge v9.8.0 ('Kuglblids') 64bit
Библиотека кодирования : libebml v1.3.4 + libmatroska v1.4.5

Видео
Идентификатор : 1
Формат : HEVC
Формат/Информация : High Efficiency Video Coding
Профиль формата : Main 10@L5@Main
Идентификатор кодека : V_MPEGH/ISO/HEVC
Продолжительность : 1 ч. 45 м.
Битрейт : 69,4 Мбит/сек
Ширина : 3840 пикселей
Высота : 2160 пикселей
Соотношение сторон : 16:9
Режим частоты кадров : Постоянный
Частота кадров : 23,976 (24000/1001) кадра/сек
Цветовое пространство : YUV
Субдискретизация насыщенности : 4:2:0
Битовая глубина : 10 бит
Бит/(Пиксели*Кадры) : 0.349
Размер потока : 51,2 Гбайт (94%)
Библиотека кодирования : x265 2.2+22-20217c8af8ac:[Windows][GCC 6.2.0][64 bit] 10bit
Настройки программы : cpuid=1173503 / frame-threads=5 / numa-pools=14,14 / wpp / no-pmode / no-pme / no-psnr / no-ssim / log-level=2 / input-csp=1 / input-res=3840x2160 / interlace=0 / total-frames=151914 / level-idc=0 / high-tier=1 / uhd-bd=0 / ref=3 / no-allow-non-conformance / no-repeat-headers / annexb / no-aud / no-hrd / info / hash=0 / no-temporal-layers / open-gop / min-keyint=23 / keyint=250 / bframes=4 / b-adapt=2 / b-pyramid / bframe-bias=0 / rc-lookahead=20 / lookahead-slices=8 / scenecut=40 / no-intra-refresh / ctu=64 / min-cu-size=8 / no-rect / no-amp / max-tu-size=32 / tu-inter-depth=1 / tu-intra-depth=1 / limit-tu=0 / rdoq-level=0 / signhide / no-tskip / nr-intra=0 / nr-inter=0 / no-constrained-intra / no-strong-intra-smoothing / max-merge=2 / limit-refs=3 / no-limit-modes / me=3 / subme=2 / merange=57 / temporal-mvp / weightp / no-weightb / no-analyze-src-pics / deblock=-3:-3 / no-sao / no-sao-non-deblock / rd=3 / no-early-skip / no-rskip / no-fast-intra / no-tskip-fast / no-cu-lossless / no-b-intra / rdpenalty=0 / psy-rd=3.50 / psy-rdoq=0.00 / no-rd-refine / analysis-mode=0 / no-lossless / cbqpoffs=0 / crqpoffs=0 / rc=crf / crf=16.0 / qcomp=0.60 / qpstep=1 / stats-write=0 / stats-read=0 / ipratio=1.10 / pbratio=1.00 / aq-mode=0 / aq-strength=0.00 / no-cutree / zone-count=0 / no-strict-cbr / qg-size=64 / rc-grain / qpmax=69 / qpmin=0 / sar=1 / overscan=0 / videoformat=5 / range=0 / colorprim=1 / transfer=1 / colormatrix=1 / chromaloc=0 / display-window=0 / max-cll=0,0 / min-luma=0 / max-luma=1023 / log2-max-poc-lsb=8 / vui-timing-info / vui-hrd-info / slices=1 / opt-qp-pps / opt-ref-list-length-pps / no-multi-pass-opt-rps / scenecut-bias=0.05 / no-opt-cu-delta-qp / no-aq-motion
Язык : English
Default : Да
Forced : Нет
Цветовой диапазон : Limited
Основные цвета : BT.709
Характеристики трансфера : BT.709
Коэффициенты матрицы : BT.709

Аудио #1
Идентификатор : 2
Формат : AC-3
Формат/Информация : Audio Coding 3
Расширение режима : CM (complete main)
Параметр Endianness формата : Big
Идентификатор кодека : A_AC3
Продолжительность : 1 ч. 45 м.
Вид битрейта : Постоянный
Битрейт : 384 Кбит/сек
Каналы : 6 каналов
Расположение каналов : Front: L C R, Side: L R, LFE
Частота : 48,0 КГц
Частота кадров : 31,250 кадров/сек (1536 spf)
Метод сжатия : С потерями
Задержка видео : 18 с. 0 мс.
Размер потока : 289 Мбайт (1%)
Заголовок : AC3 5.1 @ 384 kbps - DUB, iTunes
Язык : Russian
Default : Нет
Forced : Нет

Аудио #2
Идентификатор : 3
Формат : DTS
Формат/Информация : Digital Theater Systems
Профиль формата : MA / ES Matrix / Core
Режим : 16
Параметр Endianness формата : Big
Идентификатор кодека : A_DTS
Продолжительность : 1 ч. 45 м.
Вид битрейта : Переменный / Постоянный / Постоянный
Битрейт : 4309 Кбит/сек / 1509 Кбит/сек / 1509 Кбит/сек
Каналы : 8 каналов / 7 каналов / 6 каналов
Расположение каналов : Front: L C R, Side: L R, Back: L R, LFE / Front: L C R, Side: L R, Back: C, LFE / Front: L C R, Side: L R, LFE
Частота : 48,0 КГц
Частота кадров : 93,750 кадра/сек (512 spf)
Битовая глубина : 24 бит
Метод сжатия : Без потерь / Lossy / Lossy
Задержка видео : 16 с. 0 мс.
Размер потока : 3,17 Гбайт (6%)
Язык : English
Default : Да
Forced : Нет

Текст
Идентификатор : 4
Формат : UTF-8
Идентификатор кодека : S_TEXT/UTF8
Идентификатор кодека/Информация : UTF-8 Plain Text
Продолжительность : 1 ч. 44 м.
Битрейт : 1 бит/сек
Count of elements : 20
Размер потока : 1,11 Кбайт (0%)
Заголовок : Forced, iTunes
Язык : Russian
Default : Да
Forced : Нет

Меню
00:00:00.000 : en:00:00:00.000
00:03:43.473 : en:00:03:43.473
00:06:41.651 : en:00:06:41.651
00:09:55.845 : en:00:09:55.845
00:13:28.182 : en:00:13:28.182
00:17:06.025 : en:00:17:06.025
00:21:07.932 : en:00:21:07.932
00:26:02.309 : en:00:26:02.309
00:30:07.513 : en:00:30:07.513
00:33:56.742 : en:00:33:56.742
00:37:43.760 : en:00:37:43.760
00:40:59.456 : en:00:40:59.456
00:45:35.148 : en:00:45:35.148
00:49:00.311 : en:00:49:00.311
00:52:35.152 : en:00:52:35.152
00:55:59.188 : en:00:55:59.188
01:00:50.228 : en:01:00:50.228
01:04:33.244 : en:01:04:33.244
01:08:47.664 : en:01:08:47.664
01:12:04.653 : en:01:12:04.653
01:15:58.554 : en:01:15:58.554
01:19:31.807 : en:01:19:31.807
01:22:46.543 : en:01:22:46.543
01:25:43.971 : en:01:25:43.971
01:29:02.295 : en:01:29:02.295
01:31:44.873 : en:01:31:44.873
01:34:18.527 : en:01:34:18.527
01:37:32.680 : en:01:37:32.680


Скриншоты piratbit.pw



Скачать Шпионы по соседству через торрент http://i89.fastpic.ru/big/2017/0214/4c/c48d97bd0bcab235372db5164c48354c.png Скачать фильм Шпионы по соседству через торрент бесплантно в хорошем качестве Описание: Супружеская пара из пригорода оказывается втянутой в международный шпионский заговор, когда обнаруживает, что их, казалось бы, ... 8.2 10 6
Торрент: Зарегистрирован [2017-02-14 10:07] · скачан: 90 раз
Статус: √ проверено
Размер: 54.62 GB
Как cкачать? Как скачать Шпионы по соседству через торрент | qTorrent

% Раздел Тема Автор DL S | L
Ultra HD (UHD: 2K, 4K, 8K) — видео сверхвысокой чёткости [ 29.8 GB ] Шпионы по соседству / Keeping Up with the Joneses [2016 UHD BDRemux 2160p] DUB [] sheker187 Скачать
2 | 0
Фильмы (Blu-ray, BD-Remux, HDDVD) [ 24.24 GB ] Шпионы по соседству / Keeping Up with the Joneses [2016 BDRemux 1080p] - [] -Lexx- Скачать
1 | 0
Фильмы 2016 [DVDrip, WEB-DLRip, HDrip] (DUB, MVO) [ 1.46 GB ] Шпионы по соседству / Keeping Up with the Joneses [2016 BDRip] - [] Twi7ter Скачать
1 | 0
Фильмы [HD 720p, 1080p] (Хороший звук DUB, MVO) [ 15.1 GB ] Шпионы по соседству / Keeping Up with the Joneses [2016 BDRip 1080p] - [] -Lexx- Скачать
1 | 0
Фильмы (WEB-DL 720p, 1080p) [ 4.16 GB ] Шпионы по соседству / Keeping Up with the Joneses [2016 WEB-DL 1080p] - -Lexx- Скачать
2 | 0
Фильмы 2016 [DVDrip, WEB-DLRip, HDrip] (DUB, MVO) [ 2.05 GB ] Шпионы по соседству / Keeping Up with the Joneses [2016 WEB-DLRip] killermax2013 Скачать
2 | 0
R.G. Resident & PiratVoice - Фильмы, Видео [ 2.8 GB ] Шпионы по соседству / Keeping Up with the Joneses [2016 BDRip-AVC] - R.G.Resident schultz Скачать
1 | 0

28-11-2019 20:33  

Отключить всю рекламу на сайте

13-12-2019 09:10 Шпионы по соседству Скачать торрент  

пожалуйста встаньте на раздачу!!piratbit.pw



    Дорогой пользователь! Огромная просьба, поблагодарите релизера, оцените раздачу и оставьте свои комментарий, если Вы скачали Шпионы по соседству через торрент бесплатно! Внесите свою лепту в развитие PiratBit!
    Комментировать посты могут только пользователи прошедшие не сложную регистрацию
    Показать сообщения:    

    Шпионы по соседству через торрент
    Скачать бесплатно Шпионы по соседству
    Шпионы по соседству скачать торрент
    Шпионы по соседству смотреть онлайн
    Cкачать фильм Шпионы по соседству бесплатно
    Шпионы по соседству скачать торрент в хорошем качестве
    Шпионы по соседству смотреть онлайн бесплатно в хорошем качестве


    Вы не можете начинать темы
    Вы не можете отвечать на сообщения
    Вы не можете редактировать свои сообщения
    Вы не можете удалять свои сообщения
    Вы не можете голосовать в опросах
    Вы не можете прикреплять файлы к сообщениям
    Вы можете скачивать файлы