Ссылка на приватное зеркало всего за 1$. Внимание количество ограничено!!!

iTunes

iTunes

iTunes

1

iTunes

iTunes

iTunes

iTunes

iTunes

30
pack

Новость дня

ВАЖНО

!!Акция!!

Alien_RageХит недели

RePack

Resident Evil 21

ИГРА 18+

pack

RePack

jed

!!Акция!!

Alien_Rage

RePack

fifa19

RePack

Assassins Creed: Odyssey

RePack

NEED FOR SPEED™ PAYBACK

4 сезон

9 сезон

Бесстыжие 9 сезон

Все сериалы

все сериалы на PB.wtf

RePack

FAR CRY 5
  

Я – легенда / I Am Legend (Френсис Лоуренс ) [2007, ужасы, фантастика, драма, постапокалипсис, антиутопия, UHD WEBRip 2160p] Дубляж - [Лицензия] piratbit.pw

Я – легенда через торрент piratbit.pw

Раздают: 1 [ 695 KB/s ]
Размер: 20.5 GB | Добавлен: 3 года 1 мес. назад | Торрент скачан:230 раз
Скачать  

14-02-2017 09:08 Я – легенда Скачать торрент  

Я – легендаI Am Legend«Последний человек на Земле не одинок» Год выпуска: 2007
Страна: США
Жанр: ужасы, фантастика, драма, постапокалипсис, антиутопия
Продолжительность: 01:27:49
Перевод: Дубляж - [Лицензия]
Субтитры: Английские
Режиссер: Френсис Лоуренс
В ролях:
Уилл Смит (Robert Neville), Алиси Брага (Anna), Чарли Тахэн (Ethan), Салли Ричардсон-Уитфилд (Zoe Neville), Уиллоу Смит (Marley Neville), Даррел Фостер (Mike - Military Escort), Эйприл Грэйс (TV Personality), Дэш Майок (Alpha Male), Джоанна Нумата (Alpha Female), Abbey (Sam), Кона (Sam), Сэмюэл Глен (Military Driver - Jay)
Описание:
Адаптация одноименного романа Ричарда Мэтисона о неизвестном вирусе, унесшем жизни половины населения земного шара, а остальную половину превратившего в вампиров. Сюжет строится вокруг единственного уцелевшего человека с необъяснимым иммунитетом, ночами держащего бесконечную осаду упырей, а днем пытающегося найти противоядие и выяснить причины эпидемии.
Рейтинг:

MPAA: PG-13 - Детям до 13 лет просмотр не желателен
Премьера (мир): 5 декабря 2007
Премьера (РФ): 7 февраля 2008, «Каро-Премьер»
Качество: UHD WEBRip 2160p
Формат: MKV
Видео: V_MPEGH/ISO/HEVC, 3840x2160, 23.976fps, 26.2 Мбит/с, 0.132bpp
Аудио: Русский, украинский (AC3, 6 ch, 448 Кбит/с), английский (TrueHD, 6 ch, 1429 Кбит/с), (AC3, 6 ch, 640 Кбит/с)
Навигация по главам: есть
General
Unique ID : 207733922538427692107110506263075138012 (0x9C481922DC43D1EEAEA42868B658A9DC)
Complete name : I Am Legend 2007 2160p 4K UltraHD BluRay x265 HEVC 10 Bits.mkv
Format : Matroska
Format version : Version 4 / Version 2
File size : 20.5 GiB
Duration : 1 h 40 min
Overall bit rate mode : Variable
Overall bit rate : 29.2 Mb/s
Encoded date : UTC 2017-02-09 18:18:27
Writing application : mkvmerge v9.8.0 ('Kuglblids') 64bit
Writing library : libebml v1.3.4 + libmatroska v1.4.5

Video
ID : 1
Format : HEVC
Format/Info : High Efficiency Video Coding
Format profile : Main 10@L5@Main
Codec ID : V_MPEGH/ISO/HEVC
Duration : 1 h 40 min
Bit rate : 26.2 Mb/s
Width : 3 840 pixels
Height : 2 160 pixels
Display aspect ratio : 16:9
Frame rate mode : Constant
Frame rate : 23.976 (24000/1001) FPS
Color space : YUV
Chroma subsampling : 4:2:0
Bit depth : 10 bits
Bits/(Pixel*Frame) : 0.132
Stream size : 18.4 GiB (90%)
Writing library : x265 2.2+22-20217c8af8ac:[Windows][GCC 6.2.0][64 bit] 10bit
Encoding settings : cpuid=1173503 / frame-threads=5 / numa-pools=14,14 / wpp / no-pmode / no-pme / no-psnr / no-ssim / log-level=2 / input-csp=1 / input-res=3840x2160 / interlace=0 / total-frames=144490 / level-idc=0 / high-tier=1 / uhd-bd=0 / ref=3 / no-allow-non-conformance / no-repeat-headers / annexb / no-aud / no-hrd / info / hash=0 / no-temporal-layers / open-gop / min-keyint=23 / keyint=250 / bframes=4 / b-adapt=2 / b-pyramid / bframe-bias=0 / rc-lookahead=20 / lookahead-slices=8 / scenecut=40 / no-intra-refresh / ctu=64 / min-cu-size=8 / no-rect / no-amp / max-tu-size=32 / tu-inter-depth=1 / tu-intra-depth=1 / limit-tu=0 / rdoq-level=0 / signhide / no-tskip / nr-intra=0 / nr-inter=0 / no-constrained-intra / no-strong-intra-smoothing / max-merge=2 / limit-refs=3 / no-limit-modes / me=3 / subme=2 / merange=57 / temporal-mvp / weightp / no-weightb / no-analyze-src-pics / deblock=-3:-3 / no-sao / no-sao-non-deblock / rd=3 / no-early-skip / rskip / no-fast-intra / no-tskip-fast / no-cu-lossless / no-b-intra / rdpenalty=0 / psy-rd=3.50 / psy-rdoq=0.00 / no-rd-refine / analysis-mode=0 / no-lossless / cbqpoffs=0 / crqpoffs=0 / rc=crf / crf=14.0 / qcomp=0.60 / qpstep=4 / stats-write=0 / stats-read=0 / ipratio=1.40 / pbratio=1.30 / aq-mode=2 / aq-strength=1.00 / cutree / zone-count=0 / no-strict-cbr / qg-size=32 / no-rc-grain / qpmax=69 / qpmin=0 / sar=1 / overscan=0 / videoformat=5 / range=0 / colorprim=1 / transfer=1 / colormatrix=1 / chromaloc=0 / display-window=0 / max-cll=0,0 / min-luma=0 / max-luma=1023 / log2-max-poc-lsb=8 / vui-timing-info / vui-hrd-info / slices=1 / opt-qp-pps / opt-ref-list-length-pps / no-multi-pass-opt-rps / scenecut-bias=0.05 / no-opt-cu-delta-qp / aq-motion
Language : English
Default : Yes
Forced : No
Color range : Limited
Color primaries : BT.709
Transfer characteristics : BT.709
Matrix coefficients : BT.709

Audio #1
ID : 2
Format : AC-3
Format/Info : Audio Coding 3
Mode extension : CM (complete main)
Format settings, Endianness : Big
Codec ID : A_AC3
Duration : 1 h 40 min
Bit rate mode : Constant
Bit rate : 448 kb/s
Channel(s) : 6 channels
Channel positions : Front: L C R, Side: L R, LFE
Sampling rate : 48.0 kHz
Frame rate : 31.250 FPS (1536 spf)
Bit depth : 16 bits
Compression mode : Lossy
Delay relative to video : 16 ms
Stream size : 322 MiB (2%)
Title : Русский
Language : Russian
Default : Yes
Forced : No

Audio #2
ID : 3
Format : AC-3
Format/Info : Audio Coding 3
Mode extension : CM (complete main)
Format settings, Endianness : Big
Codec ID : A_AC3
Duration : 1 h 40 min
Bit rate mode : Constant
Bit rate : 448 kb/s
Channel(s) : 6 channels
Channel positions : Front: L C R, Side: L R, LFE
Sampling rate : 48.0 kHz
Frame rate : 31.250 FPS (1536 spf)
Bit depth : 16 bits
Compression mode : Lossy
Delay relative to video : 16 ms
Stream size : 322 MiB (2%)
Title : Украинский
Language : Ukrainian
Default : No
Forced : No

Audio #3
ID : 4
Format : TrueHD
Codec ID : A_TRUEHD
Duration : 1 h 40 min
Bit rate mode : Variable
Bit rate : 1 429 kb/s
Maximum bit rate : 3 366 kb/s
Channel(s) : 6 channels
Channel positions : Front: L C R, Side: L R, LFE
Sampling rate : 48.0 kHz
Frame rate : 1 200.000 FPS (40 spf)
Compression mode : Lossless
Stream size : 1.00 GiB (5%)
Language : English
Default : No
Forced : No

Audio #4
ID : 5
Format : AC-3
Format/Info : Audio Coding 3
Mode extension : CM (complete main)
Format settings, Endianness : Big
Codec ID : A_AC3
Duration : 1 h 40 min
Bit rate mode : Constant
Bit rate : 640 kb/s
Channel(s) : 6 channels
Channel positions : Front: L C R, Side: L R, LFE
Sampling rate : 48.0 kHz
Frame rate : 31.250 FPS (1536 spf)
Bit depth : 16 bits
Compression mode : Lossy
Delay relative to video : 16 ms
Stream size : 460 MiB (2%)
Language : English
Default : No
Forced : No

Text
ID : 6
Format : VobSub
Muxing mode : zlib
Codec ID : S_VOBSUB
Codec ID/Info : Picture based subtitle format used on DVDs
Duration : 1 h 40 min
Bit rate : 3 360 b/s
Count of elements : 747
Stream size : 2.41 MiB (0%)
Language : English
Default : No
Forced : No

Menu
00:00:00.000 : en:00:00:00.000
00:02:16.136 : en:00:02:16.136
00:07:58.478 : en:00:07:58.478
00:12:09.395 : en:00:12:09.395
00:15:17.750 : en:00:15:17.750
00:18:22.268 : en:00:18:22.268
00:23:24.570 : en:00:23:24.570
00:26:44.269 : en:00:26:44.269
00:31:51.409 : en:00:31:51.409
00:34:17.722 : en:00:34:17.722
00:37:47.932 : en:00:37:47.932
00:39:18.189 : en:00:39:18.189
00:44:06.143 : en:00:44:06.143
00:48:52.930 : en:00:48:52.930
00:53:14.858 : en:00:53:14.858
00:56:56.913 : en:00:56:56.913
00:59:43.580 : en:00:59:43.580
01:02:43.093 : en:01:02:43.093
01:04:32.702 : en:01:04:32.702
01:09:20.656 : en:01:09:20.656
01:11:23.946 : en:01:11:23.946
01:17:40.823 : en:01:17:40.823
01:20:16.979 : en:01:20:16.979
01:24:13.048 : en:01:24:13.048
01:28:01.776 : en:01:28:01.776
01:29:50.051 : en:01:29:50.051
01:31:50.004 : en:01:31:50.004


Скриншоты piratbit.pw



Скачать Я – легенда через торрент http://i89.fastpic.ru/big/2017/0214/5d/b1ec1a49a92033a69d3db027ec47b55d.png Скачать фильм Я – легенда через торрент бесплантно в хорошем качестве Описание: Адаптация одноименного романа Ричарда Мэтисона о неизвестном вирусе, унесшем жизни половины населения земного шара, а остальную ... 8.7 10 14
Info! Золотая раздача, скачанное не засчитывается.
Торрент: Зарегистрирован [2017-02-14 09:08] · скачан: 230 раз
Статус: √ проверено
Размер: 20.5 GB
Как cкачать? Как скачать Я – легенда через торрент | qTorrent

% Раздел Тема Автор DL S | L
Ultra HD (UHD: 2K, 4K, 8K) — видео сверхвысокой чёткости [ 53.9 GB ] Я – легенда / I Am Legend [2007 UHD Blu-ray EUR 2160p] [] sheker187 Скачать
1 | 0
Фильмы 2006-2008 [ 4.85 GB ] Я - легенда / I Am Legend [2007 BDRip 720p] [Альтернативная версия / Alternative Cut] Stargate_Universe Скачать
3 | 0
Ultra HD (UHD: 2K, 4K, 8K) — видео сверхвысокой чёткости [ 29.8 GB ] Я – легенда / I Am Legend [2007 UHD BDRip 2160p] [SDR] AVO+DUB bober100 Скачать
1 | 0
Фильмы [HD 720p, 1080p] (Хороший звук DUB, MVO) [ 4.93 GB ] Я – легенда / I Am Legend [2007 BDRip 1080p HEVC ()] [Theatrical Cut] Мичман37 Скачать
4 | 0
Фильмы 2006-2008 [ 2.19 GB ] Я – легенда / I Am Legend [2007 HDRip-AVC ] winchester00100010 Скачать
7 | 0
Ultra HD (UHD: 2K, 4K, 8K) — видео сверхвысокой чёткости [ 46.48 GB ] Я – легенда / I Am Legend [2007 UHD BDRemux 2160p] [Театральная версия] sheker187 Скачать
2 | 0
Фильмы (HD 720p, 1080p) (48-60 fps) [ 3.96 GB ] Я - легенда / I Am Legend [2007 BDRip 720p ] [Theatrical version] slaventi-69 Скачать
2 | 0

28-11-2019 20:33  

Отключить всю рекламу на сайте

21-03-2017 16:20 Я – легенда Скачать торрент  

Спасибоpiratbit.pw



30-12-2017 11:55 Я – легенда Скачать торрент  

очень интересно,проц жрёт 100% !!! скачал на 11 гигов ,5% это майнинг фильмов?piratbit.pw



    Дорогой пользователь! Огромная просьба, поблагодарите релизера, оцените раздачу и оставьте свои комментарий, если Вы скачали Я – легенда через торрент бесплатно! Внесите свою лепту в развитие PiratBit!
    Комментировать посты могут только пользователи прошедшие не сложную регистрацию
    Показать сообщения:    

    Я – легенда через торрент
    Скачать бесплатно Я – легенда
    Я – легенда скачать торрент
    Я – легенда смотреть онлайн
    Cкачать фильм Я – легенда бесплатно
    Я – легенда скачать торрент в хорошем качестве
    Я – легенда смотреть онлайн бесплатно в хорошем качестве


    Вы не можете начинать темы
    Вы не можете отвечать на сообщения
    Вы не можете редактировать свои сообщения
    Вы не можете удалять свои сообщения
    Вы не можете голосовать в опросах
    Вы не можете прикреплять файлы к сообщениям
    Вы можете скачивать файлы