Ссылка на приватное зеркало нашего сайта всего за 1$. Внимание количество ограничено!!!

2 сезон

iTunes

1 сезон

1

iTunes

iTunes

iTunes

1 сезон

RePack

30

ИГРА 18+

pack

ВАЖНО

!!Акция!!

Alien_RageХит недели

RePack

MK11
pack

Забери бонус

RePack

jed

!!Акция!!

Alien_Rage

RePack

fifa19

RePack

Assassins Creed: Odyssey

RePack

NEED FOR SPEED™ PAYBACK

4 сезон

9 сезон

Бесстыжие 9 сезон

Все сериалы

все сериалы на PB.wtf

RePack

FAR CRY 5
  

Дачный романс (Вадим Дубровицкий) [2014, мелодрама, HDTVRip-AVC] piratbit.pw

Дачный романс через торрент piratbit.pw

Размер: 1.88 GB | Добавлен: 3 года 8 мес. назад | Торрент скачан:43 раза
Скачать  

07-02-2017 08:39 Дачный романс Скачать торрент  

Дачный романс
Год выпуска: 2014
Страна: Россия
Жанр: мелодрама
Продолжительность: 02:02:35
Язык: Русский
Субтитры: отсутствуют

Режиссер: Вадим Дубровицкий

В ролях:

Константин Юшкевич, Карина Разумовская, Анна Дубровская, Владимир Капустин

Описание:

Борис отправляется к бывшей жене Анне, чтобы забрать свои вещи. На даче, помимо бывшей жены, проживает ещё и её новый муж. Чтобы не чувствовать себя неловко, Борис по дороге за город знакомится с симпатичной девушкой и предлагает ей "сыграть" роль его любимой женщины. От такой наглости бывшего мужа у Анны шок, её обуревает ревность. И выясняется, что далеко не все чувства между бывшими супругами угасли...

Качество: HDTVRip-AVC
Формат: MKV
Видео кодек: H.264
Аудио кодек: AC3

Видео: 1024x576 (16:9), 25 fps, AVC MPEG-4 (x264), High@L4.1, ~ 2000 kbps avg, 0.136 bit/pixel
Аудио#1: 48 kHz, AC3, 2/0 (L,R) ch, ~192 kbps
Общее
Уникальный идентификатор : 180255083662010947290699870676684007557 (0x879BDDC77E2B776188418317439E6885)
Полное имя : C: Dachnyj.romans.(2014).HDTVRip.AVC.mkv
Формат : Matroska
Версия формата : Version 2
Размер файла : 1,88 Гбайт
Продолжительность : 2 ч. 2 м.
Общий поток : 2193 Кбит/сек
Дата кодирования : UTC 2017-02-06 05:05:18
Программа кодирования : mkvmerge v6.1.0 ('Old Devil') built on Mar 4 2013 09:10:42
Библиотека кодирования : libebml v1.3.0 + libmatroska v1.4.0

Видео
Идентификатор : 1
Формат : AVC
Формат/Информация : Advanced Video Codec
Профиль формата : High@L4.1
Параметр CABAC формата : Да
Параметр ReFrames формата : 9 кадров
Идентификатор кодека : V_MPEG4/ISO/AVC
Продолжительность : 2 ч. 2 м.
Битрейт : 2000 Кбит/сек
Ширина : 1024 пикселя
Высота : 576 пикселей
Соотношение сторон : 16:9
Режим частоты кадров : Постоянный
Частота кадров : 25,000 кадров/сек
Цветовое пространство : YUV
Субдискретизация насыщенности : 4:2:0
Битовая глубина : 8 бит
Тип развёртки : Прогрессивная
Бит/(Пиксели*Кадры) : 0.136
Размер потока : 1,68 Гбайт (89%)
Библиотека кодирования : x264 core 130 r2273 b3065e6
Настройки программы : cabac=1 / ref=9 / deblock=1:-2:-1 / analyse=0x3:0x133 / me=umh / subme=9 / psy=1 / psy_rd=1.00:0.15 / mixed_ref=1 / me_range=32 / chroma_me=1 / trellis=2 / 8x8dct=1 / cqm=0 / deadzone=21,11 / fast_pskip=0 / chroma_qp_offset=-3 / threads=6 / lookahead_threads=1 / sliced_threads=0 / nr=0 / decimate=1 / interlaced=0 / bluray_compat=0 / constrained_intra=0 / bframes=9 / b_pyramid=2 / b_adapt=2 / b_bias=0 / direct=1 / weightb=1 / open_gop=0 / weightp=2 / keyint=250 / keyint_min=25 / scenecut=40 / intra_refresh=0 / rc=2pass / mbtree=0 / bitrate=2000 / ratetol=1.0 / qcomp=0.60 / qpmin=0 / qpmax=69 / qpstep=4 / cplxblur=20.0 / qblur=0.5 / ip_ratio=1.40 / pb_ratio=1.30 / aq=2:1.00
Default : Да
Forced : Нет
Цветовой диапазон : Limited
Основные цвета : BT.709
Характеристики трансфера : BT.709
Коэффициенты матрицы : BT.709

Аудио
Идентификатор : 2
Формат : AC-3
Формат/Информация : Audio Coding 3
Расширение режима : CM (complete main)
Параметр Endianness формата : Big
Идентификатор кодека : A_AC3
Продолжительность : 2 ч. 2 м.
Вид битрейта : Постоянный
Битрейт : 192 Кбит/сек
Каналы : 2 канала
Расположение каналов : Front: L R
Частота : 48,0 КГц
Частота кадров : 31,250 кадров/сек (1536 spf)
Битовая глубина : 16 бит
Метод сжатия : С потерями
Размер потока : 168 Мбайт (9%)
Default : Да
Forced : Нет
скриншот   скриншот   скриншот   скриншот  
piratbit.pw



Скачать Дачный романс через торрент http://s018.radikal.ru/i515/1702/cf/2cae3a60ca10.png Скачать фильм Дачный романс через торрент бесплантно в хорошем качестве Описание: Борис отправляется к бывшей жене Анне, чтобы забрать свои вещи. На даче, помимо бывшей жены, проживает ещё и её новый муж. Чтобы ... 9.8 10 4
Торрент: Зарегистрирован [2017-02-07 08:39] · скачан: 43 раз
Статус: √ проверено
Размер: 1.88 GB
Как cкачать? Как скачать Дачный романс через торрент | qTorrent

28-11-2019 20:33  

Отключить всю рекламу на сайте

    Дорогой пользователь! Огромная просьба, поблагодарите релизера, оцените раздачу и оставьте свои комментарий, если Вы скачали Дачный романс через торрент бесплатно! Внесите свою лепту в развитие PiratBit!
    Комментировать посты могут только пользователи прошедшие не сложную регистрацию
    Показать сообщения:    

    Дачный романс через торрент
    Скачать бесплатно Дачный романс
    Дачный романс скачать торрент
    Дачный романс смотреть онлайн
    Cкачать фильм Дачный романс бесплатно
    Дачный романс скачать торрент в хорошем качестве
    Дачный романс смотреть онлайн бесплатно в хорошем качестве


    Вы не можете начинать темы
    Вы не можете отвечать на сообщения
    Вы не можете редактировать свои сообщения
    Вы не можете удалять свои сообщения
    Вы не можете голосовать в опросах
    Вы не можете прикреплять файлы к сообщениям
    Вы можете скачивать файлы