Ссылка на приватное зеркало всего за 1$. Внимание количество ограничено!!!

iTunes

iTunes

iTunes

1

iTunes

iTunes

iTunes

iTunes

iTunes

30
pack

Новость дня

ВАЖНО

!!Акция!!

Alien_RageХит недели

RePack

Resident Evil 21

ИГРА 18+

pack

RePack

jed

!!Акция!!

Alien_Rage

RePack

fifa19

RePack

Assassins Creed: Odyssey

RePack

NEED FOR SPEED™ PAYBACK

4 сезон

9 сезон

Бесстыжие 9 сезон

Все сериалы

все сериалы на PB.wtf

RePack

FAR CRY 5
  

Жизнь Пи / Life of Pi (Энг Ли ) [2012, фэнтези, драма, приключения, UHDWEBRip (2160р)] DUB+AVO [Лицензия] piratbit.pw

Скачать  

03-02-2017 10:26 Жизнь Пи Скачать торрент  

Жизнь ПиLife of Pi«Поверь в невозможное» Год выпуска: 2012
Страна: США, Тайвань, Великобритания
Жанр: фэнтези, драма, приключения
Продолжительность: 02:06:59
Перевод: Дублированный, Авторский (одноголосый) [Ю.Сербин]
Субтитры: русские (Forced, Blu-ray EUR), русские (Blu-ray EUR), русские (DVD R5), украинские (Forced, Blu-ray EUR), украинские (Blu-ray EUR), английские (Forced), английские (SDH)
Режиссер: Энг Ли
В ролях:
Сурадж Шарма (Pi Patel), Ирфан Кхан (Adult Pi Patel), Рейф Сполл (Writer), Табу (Gita Patel), Адиль Хуссэйн (Santosh Patel), Жерар Депардье (Cook), Аюш Тандон (Pi Patel (11-12 Years)), Гаутам Белур (Pi Patel (5 Years)), Аяан Кхан (Ravi Patel (7 Years)), Мохд Аббас Халили (Ravi Patel (13-14 Years)), Вибиш Шивакумар (Ravi Patel (18-19 Years)), Джеймс Саито (Older Insurance Investigator)
Описание:
Это история сына владельца одного индийского зоопарка, мальчика по имени Пи. Он познаёт мир, учится отстаивать свои принципы, ищет собственную дорогу к Богу, живя по канонам трёх конфессий, влюбляется... Но волей судьбы его семья вынуждена эмигрировать. На полпути между Индией и Канадой корабль терпит крушение, и Пи остается в шлюпке вместе с бенгальским тигром, гиеной, зеброй и орангутангом. Вокруг безбрежная водная гладь, а впереди - неизвестность...
Рейтинг:

MPAA: PG - Рекомендуется присутствие родителей
Качество: UHDWEBRip (2160р) (Источник: ProRes HQ video capture from the UHD Blu-ray )
Формат: MKV
Видео: V_MPEGH/ISO/HEVC, 3840x2076 (1.85:1), 33612 kbps, 23,976 fps, 0,176 bpp
Аудио №1: русский / DTS / 5.1 / 48 kHz / 768 kbps / 24 bit || Дубляж, Blu-ray EUR
Аудио №2: украинский / AC3 / 5.1 / 48 kHz / 448 kbps / | Дубляж, Blu-ray EUR
Аудио №3: русский / DTS-HD / 48 kHz / 4750 kbps / 24 bit || Одноголосый закадровый, Ю.Сербин
Аудио №4: английский / DTS-HD / 48 kHz / 4702 kbps / 24 bit | Blu-ray EUR
Навигация по главам: есть
General
Unique ID : 244426551317977873371707970759329911644 (0xB7E2D7688624FDC29429A529D3C5135C)
Complete name : Life.of.Pi.2012.2160p.UHD.BluRay.HDR.DTS-HD.MA7.1.x265-ULTRAHDCLUB.mkv
Format : Matroska
Format version : Version 4 / Version 2
File size : 39.3 GiB
Duration : 2 h 6 min
Overall bit rate : 44.3 Mb/s
Movie name : Life of Pi (2012) - Release for ULTRAHDCLUB
Encoded date : UTC 2017-01-31 21:31:45
Writing application : mkvmerge v9.3.1 ('Mask Machine') 64bit
Writing library : libebml v1.3.4 + libmatroska v1.4.5

Video
ID : 1
Format : HEVC
Format/Info : High Efficiency Video Coding
Format profile : Main 10@L5@Main
Codec ID : V_MPEGH/ISO/HEVC
Duration : 2 h 6 min
Bit rate : 33.6 Mb/s
Width : 3 840 pixels
Height : 2 076 pixels
Display aspect ratio : 1.85:1
Frame rate mode : Constant
Frame rate : 23.976 (23976/1000) FPS
Color space : YUV
Chroma subsampling : 4:2:0 (Type 2)
Bit depth : 10 bits
Bits/(Pixel*Frame) : 0.176
Stream size : 29.8 GiB (76%)
Title : Life of Pi (2012) - Release for ULTRAHDCLUB
Writing library : x265 2.2+2-998d4520d1cf:[Windows][GCC 6.2.0][64 bit] 10bit
Encoding settings : cpuid=1050111 / frame-threads=3 / numa-pools=12 / wpp / no-pmode / no-pme / no-psnr / no-ssim / log-level=2 / input-csp=1 / input-res=3840x2076 / interlace=0 / total-frames=0 / level-idc=0 / high-tier=1 / uhd-bd=0 / ref=1 / no-allow-non-conformance / repeat-headers / annexb / no-aud / no-hrd / info / hash=0 / no-temporal-layers / open-gop / min-keyint=23 / keyint=250 / bframes=3 / b-adapt=2 / b-pyramid / bframe-bias=0 / rc-lookahead=40 / lookahead-slices=0 / scenecut=40 / no-intra-refresh / ctu=32 / min-cu-size=8 / no-rect / no-amp / max-tu-size=32 / tu-inter-depth=1 / tu-intra-depth=1 / limit-tu=0 / rdoq-level=2 / signhide / no-tskip / nr-intra=0 / nr-inter=0 / no-constrained-intra / strong-intra-smoothing / max-merge=2 / limit-refs=0 / no-limit-modes / me=2 / subme=7 / merange=57 / temporal-mvp / weightp / weightb / no-analyze-src-pics / no-deblock / no-sao / no-sao-non-deblock / rd=6 / no-early-skip / no-rskip / fast-intra / no-tskip-fast / no-cu-lossless / no-b-intra / rdpenalty=0 / psy-rd=4.00 / psy-rdoq=8.00 / no-rd-refine / analysis-mode=0 / no-lossless / cbqpoffs=0 / crqpoffs=0 / rc=crf / crf=22.0 / qcomp=0.80 / qpstep=1 / stats-write=0 / stats-read=0 / ipratio=1.10 / pbratio=1.00 / aq-mode=3 / aq-strength=1.00 / no-cutree / zone-count=0 / no-strict-cbr / qg-size=32 / no-rc-grain / qpmax=51 / qpmin=0 / sar=0 / overscan=0 / videoformat=5 / range=0 / colorprim=9 / transfer=16 / colormatrix=9 / chromaloc=1 / chromaloc-top=2 / chromaloc-bottom=2 / display-window=0 / max-cll=0,0 / min-luma=0 / max-luma=1023 / log2-max-poc-lsb=8 / vui-timing-info / vui-hrd-info / slices=1 / opt-qp-pps / opt-ref-list-length-pps / no-multi-pass-opt-rps / scenecut-bias=0.05
Language : English
Default : Yes
Forced : No
Color range : Limited
Color primaries : BT.2020
Transfer characteristics : SMPTE ST 2084
Matrix coefficients : BT.2020 non-constant

Audio #1
ID : 2
Format : DTS
Format/Info : Digital Theater Systems
Mode : 16
Format settings, Endianness : Big
Codec ID : A_DTS
Duration : 2 h 6 min
Bit rate mode : Constant
Bit rate : 768 kb/s
Channel(s) : 6 channels
Channel positions : Front: L C R, Side: L R, LFE
Sampling rate : 48.0 kHz
Frame rate : 93.750 FPS (512 spf)
Bit depth : 24 bits
Compression mode : Lossy
Stream size : 698 MiB (2%)
Title : DTS 5.1 @ 768 kbps - DUB, Blu-ray EUR
Language : Russian
Default : Yes
Forced : No

Audio #2
ID : 3
Format : AC-3
Format/Info : Audio Coding 3
Mode extension : CM (complete main)
Format settings, Endianness : Big
Codec ID : A_AC3
Duration : 2 h 6 min
Bit rate mode : Constant
Bit rate : 448 kb/s
Channel(s) : 6 channels
Channel positions : Front: L C R, Side: L R, LFE
Sampling rate : 48.0 kHz
Frame rate : 31.250 FPS (1536 spf)
Compression mode : Lossy
Stream size : 407 MiB (1%)
Title : AC3 5.1 @ 448 kbps - DUB, Blu-ray EUR
Language : Ukrainian
Default : No
Forced : No

Audio #3
ID : 4
Format : DTS
Format/Info : Digital Theater Systems
Format profile : MA / ES Matrix / Core
Mode : 16
Format settings, Endianness : Big
Codec ID : A_DTS
Duration : 2 h 6 min
Bit rate mode : Variable / Constant / Constant
Bit rate : 4 751 kb/s / 1 509 kb/s / 1 509 kb/s
Channel(s) : 8 channels / 7 channels / 6 channels
Channel positions : Front: L C R, Side: L R, Back: L R, LFE / Front: L C R, Side: L R, Back: C, LFE / Front: L C R, Side: L R, LFE
Sampling rate : 48.0 kHz
Frame rate : 93.750 FPS (512 spf)
Bit depth : 24 bits
Compression mode : Lossless / Lossy / Lossy
Stream size : 4.21 GiB (11%)
Title : DTS-HD MA 7.1 @ 4739 kbps - AVO, Y.Serbin
Language : Russian
Default : No
Forced : No

Audio #4
ID : 5
Format : DTS
Format/Info : Digital Theater Systems
Format profile : MA / ES Matrix / Core
Mode : 16
Format settings, Endianness : Big
Codec ID : A_DTS
Duration : 2 h 6 min
Bit rate mode : Variable / Constant / Constant
Bit rate : 4 702 kb/s / 1 509 kb/s / 1 509 kb/s
Channel(s) : 8 channels / 7 channels / 6 channels
Channel positions : Front: L C R, Side: L R, Back: L R, LFE / Front: L C R, Side: L R, Back: C, LFE / Front: L C R, Side: L R, LFE
Sampling rate : 48.0 kHz
Frame rate : 93.750 FPS (512 spf)
Bit depth : 24 bits
Compression mode : Lossless / Lossy / Lossy
Stream size : 4.17 GiB (11%)
Title : DTS-HD MA 7.1 @ 4702 kbps - Blu-ray EUR
Language : English
Default : No
Forced : No

Text #1
ID : 6
Format : UTF-8
Codec ID : S_TEXT/UTF8
Codec ID/Info : UTF-8 Plain Text
Duration : 1 h 36 min
Bit rate : 2 b/s
Count of elements : 32
Stream size : 1.59 KiB (0%)
Title : Forced, Blu-ray EUR
Language : Russian
Default : Yes
Forced : No

Text #2
ID : 7
Format : UTF-8
Codec ID : S_TEXT/UTF8
Codec ID/Info : UTF-8 Plain Text
Duration : 2 h 2 min
Bit rate : 60 b/s
Count of elements : 909
Stream size : 54.5 KiB (0%)
Title : Blu-ray EUR
Language : Russian
Default : No
Forced : No

Text #3
ID : 8
Format : UTF-8
Codec ID : S_TEXT/UTF8
Codec ID/Info : UTF-8 Plain Text
Duration : 1 h 57 min
Bit rate : 56 b/s
Count of elements : 883
Stream size : 48.7 KiB (0%)
Title : DVD R5
Language : Russian
Default : No
Forced : No

Text #4
ID : 9
Format : UTF-8
Codec ID : S_TEXT/UTF8
Codec ID/Info : UTF-8 Plain Text
Duration : 1 h 36 min
Bit rate : 2 b/s
Count of elements : 32
Stream size : 1.58 KiB (0%)
Title : Forced, Blu-ray EUR
Language : Ukrainian
Default : No
Forced : No

Text #5
ID : 10
Format : UTF-8
Codec ID : S_TEXT/UTF8
Codec ID/Info : UTF-8 Plain Text
Duration : 2 h 2 min
Bit rate : 57 b/s
Count of elements : 898
Stream size : 51.4 KiB (0%)
Title : Blu-ray EUR
Language : Ukrainian
Default : No
Forced : No

Text #6
ID : 11
Format : UTF-8
Codec ID : S_TEXT/UTF8
Codec ID/Info : UTF-8 Plain Text
Duration : 1 h 36 min
Bit rate : 1 b/s
Count of elements : 32
Stream size : 979 Bytes (0%)
Title : Forced
Language : English
Default : No
Forced : No

Text #7
ID : 12
Format : UTF-8
Codec ID : S_TEXT/UTF8
Codec ID/Info : UTF-8 Plain Text
Duration : 1 h 54 min
Bit rate : 40 b/s
Count of elements : 968
Stream size : 33.8 KiB (0%)
Language : English
Default : No
Forced : No

Text #8
ID : 13
Format : UTF-8
Codec ID : S_TEXT/UTF8
Codec ID/Info : UTF-8 Plain Text
Duration : 1 h 58 min
Bit rate : 42 b/s
Count of elements : 1142
Stream size : 36.4 KiB (0%)
Title : SDH
Language : English
Default : No
Forced : No

Menu
00:00:00.000 : en:Chapter 00
00:03:58.821 : en:Chapter 01
00:11:13.172 : en:Chapter 02
00:15:24.924 : en:Chapter 03
00:21:29.621 : en:Chapter 04
00:25:44.543 : en:Chapter 05
00:29:46.826 : en:Chapter 06
00:31:31.014 : en:Chapter 07
00:35:34.298 : en:Chapter 08
00:45:24.346 : en:Chapter 09
00:50:21.893 : en:Chapter 10
00:54:13.333 : en:Chapter 11
00:57:18.351 : en:Chapter 12
01:00:07.395 : en:Chapter 13
01:04:12.056 : en:Chapter 14
01:09:32.084 : en:Chapter 15
01:11:48.053 : en:Chapter 16
01:13:34.284 : en:Chapter 17
01:16:47.561 : en:Chapter 18
01:21:31.177 : en:Chapter 19
01:23:10.026 : en:Chapter 20
01:26:30.852 : en:Chapter 21
01:31:21.434 : en:Chapter 22
01:34:13.856 : en:Chapter 23
01:43:42.674 : en:Chapter 24
01:47:38.660 : en:Chapter 25
01:55:20.079 : en:Chapter 26
01:59:16.274 : en:Chapter 27


скриншот   скриншот   скриншот   скриншот   скриншот   скриншот   скриншот  piratbit.pw





Последний раз редактировалось: sheker187 (2017-09-21 08:00), всего редактировалось 2 раз(а)

28-11-2019 20:33  

Отключить всю рекламу на сайте

07-05-2017 17:13 Жизнь Пи Скачать торрент  

sheker187, Уже 3-й день пытаюсь скачать, только 53%...раздающий!!! Совесть есть??!! piratbit.pw



13-05-2017 06:24 Жизнь Пи Скачать торрент  

Станьте на раздачу, пол процента осталось....piratbit.pw



10-06-2017 11:23 Жизнь Пи Скачать торрент  

OLEGARX писал(а):

sheker187, Уже 3-й день пытаюсь скачать, только 53%...раздающий!!! Совесть есть??!!

piratbit.pw



01-09-2017 13:32 Жизнь Пи Скачать торрент  

2% не могу уже сутки скачатьpiratbit.pw



19-09-2017 11:27 Жизнь Пи Скачать торрент  

раздайте кто ни будь.piratbit.pw



21-09-2017 08:03 Жизнь Пи Скачать торрент  

Обновил торрент!!!Теперь всё скачаете без проблемpiratbit.pw



21-09-2017 18:55 Жизнь Пи Скачать торрент  

да дайте же докачать один процент мать перемать!piratbit.pw



    Дорогой пользователь! Огромная просьба, поблагодарите релизера, оцените раздачу и оставьте свои комментарий, если Вы скачали Жизнь Пи через торрент бесплатно! Внесите свою лепту в развитие PiratBit!
    Комментировать посты могут только пользователи прошедшие не сложную регистрацию
    Показать сообщения:    

    Жизнь Пи через торрент
    Скачать бесплатно Жизнь Пи
    Жизнь Пи скачать торрент
    Жизнь Пи смотреть онлайн
    Cкачать фильм Жизнь Пи бесплатно
    Жизнь Пи скачать торрент в хорошем качестве
    Жизнь Пи смотреть онлайн бесплатно в хорошем качестве


    Вы не можете начинать темы
    Вы не можете отвечать на сообщения
    Вы не можете редактировать свои сообщения
    Вы не можете удалять свои сообщения
    Вы не можете голосовать в опросах
    Вы не можете прикреплять файлы к сообщениям
    Вы можете скачивать файлы