Marvel's Avengers Deluxe Edition (супер цена) 159р. Внимание количество ограничено!!!

2 сезон

iTunes

iTunes

1

iTunes

iTunes

iTunes

WEBRip

iTunes

30
pack

Новость дня

ВАЖНО

!!Акция!!

Alien_RageХит недели

RePack

Horizon Zero Dawn

ИГРА 18+

pack

RePack

jed

!!Акция!!

Alien_Rage

RePack

fifa19

RePack

Assassins Creed: Odyssey

RePack

NEED FOR SPEED™ PAYBACK

4 сезон

9 сезон

Бесстыжие 9 сезон

Все сериалы

все сериалы на PB.wtf

RePack

FAR CRY 5
  

Заезжий молодец (Кира Ангелина) [2014 г., мелодрама, WEB-DL 720p] piratbit.pw

Заезжий молодец через торрент piratbit.pw

Размер: 2.39 GB | Добавлен: 3 года 7 мес. назад | Торрент скачан:35 раз
Скачать  

02-02-2017 08:47 Заезжий молодец Скачать торрент  

Заезжий молодец
Год выпуска: 2014
Страна: Россия
Жанр: мелодрама
Продолжительность: 01:30:00
Перевод: Оригинал
Субтитры: отсутствуют

Режиссер: Кира Ангелина



В ролях:

Мария Куликова, Алексей Зубков, Артур Псакин, Татьяна Шатилова, Александр Усердин, Диана Енакаева, Наталия Просветова, Виктория Черненко, Сергей Терещенко

Описание:

Лариса – сильная женщина, которая давно привыкла сама справляться с любыми проблемами. Она в одиночку воспитывает непростого сына-подростка, тяжёлым трудом зарабатывает на жизнь, и давно отчаялась обрести личное счастье.
Соседка Ларисы, желая завладеть её домом, сводит героиню со своим племянником Олегом, недалеким солдафоном. Устав от бесконечного одиночества, Лариса пытается построить с ним отношения, но заговор вскоре раскрывается...
Неожиданно Лариса становится свидетельницей того, как полиция задерживает на улице мужчину без документов. Проникшись симпатией к незнакомцу, героиня помогает ему освободиться и платит за него выкуп. Черех несколько дней спасённый появляется у неё дома, но вовсе не затем, чтобы отдать долг: он просит Ларису о ночлеге. В гневе героиня прогоняет его, но дальнейшие события в корне меняют отношение женщины к этому человеку, так странно появившемуся в её жизни...

Качество: WEB-DL 720p
Формат: MKV
Видео кодек: H.264
Аудио кодек: AC3

Видео: 1280х720 (16:9), 25.000 fps, MPEG4 AVC (х264) High@L3.1, ~ 3501 kbps avg, 0.152 bit/pixel
Аудио#1: 44 kHz, AC3, 2/0 (L,R) ch, ~192.00 kbps avg
Общее
Уникальный идентификатор : 232743739301524019170053658560236596772 (0xAF18D04DEB34D1D7A2A444E8E057AE24)
Полное имя : C:\Заезжий молодец.2014.720p.mkv
Формат : Matroska
Версия формата : Version 4 / Version 2
Размер файла : 2,39 Гбайт
Продолжительность : 1 ч. 30 м.
Общий поток : 3768 Кбит/сек
Название фильма : From MegaPeer.org
Дата кодирования : UTC 2017-02-01 12:45:10
Программа кодирования : mkvmerge v6.7.0 ('Back to the Ground') 64bit built on Jan 8 2014 15:10:52
Библиотека кодирования : libebml v1.3.0 + libmatroska v1.4.1

Видео
Идентификатор : 1
Формат : AVC
Формат/Информация : Advanced Video Codec
Профиль формата : High@L3.1
Параметр CABAC формата : Да
Параметр ReFrames формата : 1 кадр
Параметр GOP формата : M=1, N=12
Идентификатор кодека : V_MPEG4/ISO/AVC
Продолжительность : 1 ч. 30 м.
Битрейт : 3501 Кбит/сек
Ширина : 1280 пикселей
Высота : 720 пикселей
Соотношение сторон : 16:9
Режим частоты кадров : Постоянный
Частота кадров : 25,000 кадров/сек
Стандарт вещания : Component
Цветовое пространство : YUV
Субдискретизация насыщенности : 4:2:0
Битовая глубина : 8 бит
Тип развёртки : Прогрессивная
Бит/(Пиксели*Кадры) : 0.152
Размер потока : 2,22 Гбайт (93%)
Default : Да
Forced : Нет
Цветовой диапазон : Limited

Аудио
Идентификатор : 2
Формат : AC-3
Формат/Информация : Audio Coding 3
Расширение режима : CM (complete main)
Параметр Endianness формата : Big
Идентификатор кодека : A_AC3
Продолжительность : 1 ч. 30 м.
Вид битрейта : Постоянный
Битрейт : 192 Кбит/сек
Каналы : 2 канала
Расположение каналов : Front: L R
Частота : 44,1 КГц
Частота кадров : 28,711 кадров/сек (1536 spf)
Битовая глубина : 16 бит
Метод сжатия : С потерями
Размер потока : 125 Мбайт (5%)
Язык : Russian
Default : Да
Forced : Нет
скриншот   скриншот   скриншот   скриншот  
piratbit.pw



Скачать Заезжий молодец через торрент http://s020.radikal.ru/i723/1607/a9/47c1afa41a3c.jpg Скачать фильм Заезжий молодец через торрент бесплантно в хорошем качестве Описание: Лариса – сильная женщина, которая давно привыкла сама справляться с любыми проблемами. Она в одиночку воспитывает непростого ... 6.4 10 5
Торрент: Зарегистрирован [2017-02-02 08:47] · скачан: 35 раз
Статус: √ проверено
Размер: 2.39 GB
Как cкачать? Как скачать Заезжий молодец через торрент | qTorrent

28-11-2019 20:33  

Отключить всю рекламу на сайте

02-02-2017 14:11 Заезжий молодец Скачать торрент  

а тебе молодец-холодец-сказка-морозко-баба яга свинье piratbit.pw



    Дорогой пользователь! Огромная просьба, поблагодарите релизера, оцените раздачу и оставьте свои комментарий, если Вы скачали Заезжий молодец через торрент бесплатно! Внесите свою лепту в развитие PiratBit!
    Комментировать посты могут только пользователи прошедшие не сложную регистрацию
    Показать сообщения:    

    Заезжий молодец через торрент
    Скачать бесплатно Заезжий молодец
    Заезжий молодец скачать торрент
    Заезжий молодец смотреть онлайн
    Cкачать фильм Заезжий молодец бесплатно
    Заезжий молодец скачать торрент в хорошем качестве
    Заезжий молодец смотреть онлайн бесплатно в хорошем качестве


    Вы не можете начинать темы
    Вы не можете отвечать на сообщения
    Вы не можете редактировать свои сообщения
    Вы не можете удалять свои сообщения
    Вы не можете голосовать в опросах
    Вы не можете прикреплять файлы к сообщениям
    Вы можете скачивать файлы