Ссылка на приватное зеркало всего за 1$. Внимание количество ограничено!!!

iTunes

iTunes

iTunes

1

iTunes

iTunes

iTunes

iTunes

iTunes

30
pack

Новость дня

ВАЖНО

!!Акция!!

Alien_RageХит недели

RePack

Resident Evil 21

ИГРА 18+

pack

RePack

jed

!!Акция!!

Alien_Rage

RePack

fifa19

RePack

Assassins Creed: Odyssey

RePack

NEED FOR SPEED™ PAYBACK

4 сезон

9 сезон

Бесстыжие 9 сезон

Все сериалы

все сериалы на PB.wtf

RePack

FAR CRY 5
  

Глубоководный горизонт / Deepwater Horizon (Питер Берг ) [2016, боевик, триллер, драма, UHDWEBRip 2160p] Дубляж - [Лицензия] piratbit.pw

Глубоководный горизонт через торрент piratbit.pw

Размер: 42.06 GB | Добавлен: 3 года 2 мес. назад | Торрент скачан:144 раза
Скачать  

01-02-2017 09:51 Глубоководный горизонт Скачать торрент  

Глубоководный горизонтDeepwater Horizon«When faced with our darkest hour, hope is not a tactic» Год выпуска: 2016
Страна: Гонконг, США
Производство: Closest to the Hole Productions, Di Bonaventura Pictures, Imagenation Abu Dhabi FZ, Leverage Entertainment
Жанр: боевик, триллер, драма
Продолжительность: 01:47:17
Перевод: Дубляж - [Лицензия]
Субтитры: английские, Spanish
Режиссер: Питер Берг
В ролях:
Марк Уолберг (Mike Williams), Курт Рассел (Jimmy Harrell), Джон Малкович (Vidrine), Джина Родригез (Andrea Fleytas), Дилан О’Брайен (Caleb Holloway), Кейт Хадсон (Felicia), Итан Сапли (Jason Anderson), Генри Фрост (Shane M. Roshto), Джереми Сэнд (Adam Weise), Дуглас М. Гриффин (Landry), Джеймс ДюМонт (O'Bryan), Джо Крест (Sims)
Описание:
Отправляясь на очередную вахту и прощаясь с семьями, они не подозревали, что могут не вернуться... Это основанная на реальных событиях история о страшной аварии на нефтяной платформе «Глубоководный горизонт», которая произошла в 2010 году в Мексиканском заливе. Хроника беспримерного мужества и отваги перед лицом одной из самых страшных техногенных катастроф в мировой истории.
Рейтинг:

MPAA: PG-13 - Детям до 13 лет просмотр не желателен
Качество: UHDWEBRip 2160p
Формат: MKV
Видео: V_MPEGH/ISO/HEVC, 3840x2160 (16:9), 46404 kbps, 23,976 fps, 0,233 bpp
Аудио №1: русский / AC3 / 5.1 / 48 kHz / 640 kbps / ||
Аудио №2: русский / DTS-HD / 5.1 / 48 kHz / 3944 kbps / 24 bit (Core: 5.1 / 48 kHz / 1509 kbps / 24 bit) ||
Аудио №3: английский / Atmos / TrueHD / 5034 kbps /
Навигация по главам: есть
General
Unique ID : 213819171625422570497712273876447430041 (0xA0DC13148339FEF691BD87DB53D48599)
Complete name : Deepwater Horizon (2016) 2160p Multi 4K UltraHD BluRay HEVC 10 Bits Dolby ATMOS 7.1.mkv
Format : Matroska
Format version : Version 4 / Version 2
File size : 42.1 GiB
Duration : 1 h 47 min
Overall bit rate mode : Variable
Overall bit rate : 56.1 Mb/s
Encoded date : UTC 2017-01-31 04:23:16
Writing application : mkvmerge v9.6.0 ('Slave To Your Mind') 64bit
Writing library : libebml v1.3.4 + libmatroska v1.4.5

Video
ID : 1
Format : HEVC
Format/Info : High Efficiency Video Coding
Format profile : Main 10@L5@Main
Codec ID : V_MPEGH/ISO/HEVC
Duration : 1 h 47 min
Bit rate : 46.4 Mb/s
Width : 3 840 pixels
Height : 2 160 pixels
Display aspect ratio : 16:9
Frame rate mode : Constant
Frame rate : 23.976 (23976/1000) FPS
Original frame rate : 23.976 (24000/1001) FPS
Color space : YUV
Chroma subsampling : 4:2:0
Bit depth : 10 bits
Bits/(Pixel*Frame) : 0.233
Stream size : 34.8 GiB (83%)
Writing library : x265 2.2+22-20217c8af8ac:[Windows][GCC 6.2.0][64 bit] 10bit
Encoding settings : cpuid=1173503 / frame-threads=5 / numa-pools=14,14 / wpp / no-pmode / no-pme / no-psnr / no-ssim / log-level=2 / input-csp=1 / input-res=3840x2160 / interlace=0 / total-frames=155097 / level-idc=0 / high-tier=1 / uhd-bd=0 / ref=3 / no-allow-non-conformance / no-repeat-headers / annexb / no-aud / no-hrd / info / hash=0 / no-temporal-layers / open-gop / min-keyint=23 / keyint=250 / bframes=4 / b-adapt=2 / b-pyramid / bframe-bias=0 / rc-lookahead=20 / lookahead-slices=8 / scenecut=40 / no-intra-refresh / ctu=64 / min-cu-size=8 / no-rect / no-amp / max-tu-size=32 / tu-inter-depth=1 / tu-intra-depth=1 / limit-tu=0 / rdoq-level=0 / signhide / no-tskip / nr-intra=0 / nr-inter=0 / no-constrained-intra / no-strong-intra-smoothing / max-merge=2 / limit-refs=3 / no-limit-modes / me=3 / subme=2 / merange=57 / temporal-mvp / weightp / no-weightb / no-analyze-src-pics / deblock=-3:-3 / no-sao / no-sao-non-deblock / rd=3 / no-early-skip / rskip / no-fast-intra / no-tskip-fast / no-cu-lossless / no-b-intra / rdpenalty=0 / psy-rd=3.50 / psy-rdoq=0.00 / no-rd-refine / analysis-mode=0 / no-lossless / cbqpoffs=0 / crqpoffs=0 / rc=crf / crf=14.0 / qcomp=0.60 / qpstep=4 / stats-write=0 / stats-read=0 / ipratio=1.40 / pbratio=1.30 / aq-mode=2 / aq-strength=1.00 / cutree / zone-count=0 / no-strict-cbr / qg-size=32 / no-rc-grain / qpmax=69 / qpmin=0 / sar=1 / overscan=0 / videoformat=5 / range=0 / colorprim=1 / transfer=1 / colormatrix=1 / chromaloc=0 / display-window=0 / max-cll=0,0 / min-luma=0 / max-luma=1023 / log2-max-poc-lsb=8 / vui-timing-info / vui-hrd-info / slices=1 / opt-qp-pps / opt-ref-list-length-pps / no-multi-pass-opt-rps / scenecut-bias=0.05 / no-opt-cu-delta-qp / aq-motion
Language : English
Default : Yes
Forced : No
Color range : Limited
Color primaries : BT.709
Transfer characteristics : BT.709
Matrix coefficients : BT.709

Audio #1
ID : 2
Format : AC-3
Format/Info : Audio Coding 3
Mode extension : CM (complete main)
Format settings, Endianness : Big
Codec ID : A_AC3
Duration : 1 h 47 min
Bit rate mode : Constant
Bit rate : 640 kb/s
Channel(s) : 6 channels
Channel positions : Front: L C R, Side: L R, LFE
Sampling rate : 48.0 kHz
Frame rate : 31.250 FPS (1536 spf)
Compression mode : Lossy
Delay relative to video : -2 s 0 ms
Stream size : 491 MiB (1%)
Language : Russian
Default : Yes
Forced : No

Audio #2
ID : 3
Format : DTS
Format/Info : Digital Theater Systems
Format profile : MA / Core
Mode : 16
Format settings, Endianness : Big
Codec ID : A_DTS
Duration : 1 h 47 min
Bit rate mode : Variable / Constant
Bit rate : 3 945 kb/s / 1 509 kb/s
Channel(s) : 6 channels
Channel positions : Front: L C R, Side: L R, LFE
Sampling rate : 48.0 kHz
Frame rate : 93.750 FPS (512 spf)
Bit depth : 24 bits
Compression mode : Lossless / Lossy
Delay relative to video : -2 s 0 ms
Stream size : 2.96 GiB (7%)
Language : Russian
Default : No
Forced : No

Audio #3
ID : 4
Format : Atmos / TrueHD
Codec ID : A_TRUEHD
Duration : 1 h 47 min
Bit rate mode : Variable
Bit rate : 5 035 kb/s
Maximum bit rate : 6 759 kb/s
Channel(s) : Object Based / 8 channels
Channel positions : Object Based / Front: L C R, Side: L R, Back: L R, LFE
Sampling rate : / 48.0 kHz
Frame rate : 1 200.000 FPS (40 spf)
Compression mode : Lossless
Delay relative to video : -2 s 0 ms
Stream size : 3.77 GiB (9%)
Language : English
Default : No
Forced : No

Text #1
ID : 5
Format : PGS
Muxing mode : zlib
Codec ID : S_HDMV/PGS
Codec ID/Info : Picture based subtitle format used on BDs/HD-DVDs
Duration : 1 h 36 min
Bit rate : 18.5 kb/s
Count of elements : 2997
Stream size : 12.8 MiB (0%)
Language : English
Default : Yes
Forced : No

Text #2
ID : 6
Format : PGS
Muxing mode : zlib
Codec ID : S_HDMV/PGS
Codec ID/Info : Picture based subtitle format used on BDs/HD-DVDs
Duration : 1 h 36 min
Bit rate : 20.4 kb/s
Count of elements : 3319
Stream size : 14.1 MiB (0%)
Language : English
Default : No
Forced : No

Text #3
ID : 7
Format : PGS
Muxing mode : zlib
Codec ID : S_HDMV/PGS
Codec ID/Info : Picture based subtitle format used on BDs/HD-DVDs
Duration : 1 h 38 min
Bit rate : 19.1 kb/s
Count of elements : 3323
Stream size : 13.4 MiB (0%)
Language : Spanish
Default : No
Forced : No

Menu
00:00:00.000 : en:00:00:00.000
00:07:01.211 : en:00:07:01.211
00:12:32.625 : en:00:12:32.625
00:19:35.566 : en:00:19:34.463
00:27:18.321 : en:00:27:17.218
00:34:53.735 : en:00:34:52.632
00:44:30.936 : en:00:44:29.833
00:48:06.025 : en:00:48:04.922
00:53:48.702 : en:00:53:47.599
00:58:06.251 : en:00:58:05.148
01:05:45.709 : en:01:05:44.606
01:10:07.971 : en:01:10:06.868
01:16:04.035 : en:01:16:02.932
01:20:45.484 : en:01:20:44.381
01:27:38.770 : en:01:27:37.667
01:31:38.927 : en:01:31:37.824


скриншот   скриншот   скриншот   скриншот   скриншот   скриншот   скриншот  piratbit.pw



Скачать Глубоководный горизонт через торрент http://i90.fastpic.ru/big/2017/0201/c3/132c86da5de4b1e5bcae406c8d1a90c3.png Скачать фильм Глубоководный горизонт через торрент бесплантно в хорошем качестве Описание: Отправляясь на очередную вахту и прощаясь с семьями, они не подозревали, что могут не вернуться... Это основанная на реальных ... 8.9 10 8
Info! Золотая раздача, скачанное не засчитывается.
Торрент: Зарегистрирован [2017-02-01 09:51] · скачан: 144 раз
Статус: √ проверено
Размер: 42.06 GB
Как cкачать? Как скачать Глубоководный горизонт через торрент | qTorrent

% Раздел Тема Автор DL S | L
Ultra HD (UHD: 2K, 4K, 8K) — видео сверхвысокой чёткости [ 72.1 GB ] Глубоководный горизонт / Deepwater Horizon [2016 UHD BDRemux 2160p] AVO+VO+DUB [] bober100 Скачать
1 | 0
Ultra HD (UHD: 2K, 4K, 8K) — видео сверхвысокой чёткости [ 38.19 GB ] Глубоководный горизонт / Deepwater Horizon [2016 UHD BDRip 2160p] - [] sheker187 Скачать
1 | 0
Фильмы (Blu-ray, BD-Remux, HDDVD) [ 23.02 GB ] Глубоководный горизонт / Deepwater Horizon [2016 BD Remux 1080p] DUB [] bober100 Скачать
1 | 0
Фильмы с авторской озвучкой [ 1.46 GB ] Глубоководный горизонт / Deepwater Horizon [2016 BDRip] [AVO] killermax2013 Скачать
1 | 0
Фильмы (WEB-DL 720p, 1080p) [ 3.52 GB ] Глубоководный горизонт / Deepwater Horizon [2016 WEB-DL 1080p] killermax2013 Скачать
2 | 0
Фильмы 2016 [DVDrip, WEB-DLRip, HDrip] (DUB, MVO) [ 1.46 GB ] Глубоководный горизонт / Deepwater Horizon [2016 BDRip] - [] Twi7ter Скачать
2 | 0
Фильмы (HD 720p, 1080p) (48-60 fps) [ 3.07 GB ] Глубоководный горизонт / Deepwater Horizon [2016 BDRip 720p 60 fps от еnvy / NNNB] DUB еnvy Скачать
19 | 0

28-11-2019 20:33  

Отключить всю рекламу на сайте

    Дорогой пользователь! Огромная просьба, поблагодарите релизера, оцените раздачу и оставьте свои комментарий, если Вы скачали Глубоководный горизонт через торрент бесплатно! Внесите свою лепту в развитие PiratBit!
    Комментировать посты могут только пользователи прошедшие не сложную регистрацию
    Показать сообщения:    

    Глубоководный горизонт через торрент
    Скачать бесплатно Глубоководный горизонт
    Глубоководный горизонт скачать торрент
    Глубоководный горизонт смотреть онлайн
    Cкачать фильм Глубоководный горизонт бесплатно
    Глубоководный горизонт скачать торрент в хорошем качестве
    Глубоководный горизонт смотреть онлайн бесплатно в хорошем качестве


    Вы не можете начинать темы
    Вы не можете отвечать на сообщения
    Вы не можете редактировать свои сообщения
    Вы не можете удалять свои сообщения
    Вы не можете голосовать в опросах
    Вы не можете прикреплять файлы к сообщениям
    Вы можете скачивать файлы