Marvel's Avengers Deluxe Edition (супер цена) 159р. Внимание количество ограничено!!!

2 сезон

iTunes

iTunes

1

iTunes

iTunes

iTunes

WEBRip

iTunes

30
pack

Новость дня

ВАЖНО

!!Акция!!

Alien_RageХит недели

RePack

Horizon Zero Dawn

ИГРА 18+

pack

RePack

jed

!!Акция!!

Alien_Rage

RePack

fifa19

RePack

Assassins Creed: Odyssey

RePack

NEED FOR SPEED™ PAYBACK

4 сезон

9 сезон

Бесстыжие 9 сезон

Все сериалы

все сериалы на PB.wtf

RePack

FAR CRY 5
  

28 панфиловцев (Ким Дружинин , Андрей Шальопа ) [2016, военный, драма, BDRip 720p от potroks] Лицензия piratbit.pw

28 панфиловцев через торрент piratbit.pw

Размер: 4.37 GB | Добавлен: 3 года 7 мес. назад | Торрент скачан:490 раз
Скачать  

29-01-2017 07:41 28 панфиловцев Скачать торрент  

28 панфиловцев

Год выпуска: 2016
Страна: Россия / 28 панфиловцев, Libyan Palette Studios
Жанр: военный, драма
Продолжительность: 02:00:38
Перевод: Оригинал [Blu-ray RUS]
Субтитры: русские
Навигация по главам: есть

Режиссер: Ким Дружинин , Андрей Шальопа
В ролях:

Александр Устюгов (красноармеец Иван Москаленко), Яков Кучеревский (сержант Иван Добробабин), Азамат Нигманов (Мусабек Сенгирбаев), Олег Фёдоров (старшина Григорий Шемякин), Алексей Морозов (политрук Василий Клочков), Антон Кузнецов, Алексей Лонгин (Гундилович), Максим Белбородов, Дмитрий Мурашев, Виталий Коваленко, Сергей Агафонов, Дмитрий Цуцкин

Описание: Осенью 1941-го года немецкие части, стоявшие возле Волоколамска, отделяло от Москвы каких-нибудь два часа по шоссе. Однако, на этом шоссе стояла 316-я стрелковая дивизия под командованием генерала И. В. Панфилова. Этот военачальник обладал настолько высоким авторитетом среди личного состава, что бойцы дивизии сами называли себя панфиловцами. А дивизию - панфиловской.


Качество: BDRip 720p
Формат: MKV
Видео: AVC, 1280x536 (2.40:1), 4548 kbps, 24 fps, 0,276 bpp
Аудио: AC3 / 5.1 / 48 kHz / 640 kbps / 16 bit
General
Unique ID : 189790692797227698972173260151816915998 (0x8EC85B9B8F8A4E3487967C0645B70C1E)
Complete name : D:\28.Panfilovtcev.2016.RUS.BDRip.720p.-HELLYWOOD.mkv
Format : Matroska
Format version : Version 4 / Version 2
File size : 4.37 GiB
Duration : 2 h 0 min
Overall bit rate : 5 185 kb/s
Movie name : 28 панфиловцев (2016)
Encoded date : UTC 2017-01-29 07:11:51
Writing application : mkvmerge v5.9.0 ('On The Loose') built on Dec 15 2012 16:39:58
Writing library : libebml v1.3.0 + libmatroska v1.4.0

Video
ID : 1
Format : AVC
Format/Info : Advanced Video Codec
Format profile : High@L4.1
Format settings, CABAC : Yes
Format settings, ReFrames : 9 frames
Codec ID : V_MPEG4/ISO/AVC
Duration : 2 h 0 min
Bit rate : 4 548 kb/s
Width : 1 280 pixels
Height : 536 pixels
Display aspect ratio : 2.40:1
Frame rate mode : Constant
Frame rate : 24.000 FPS
Color space : YUV
Chroma subsampling : 4:2:0
Bit depth : 8 bits
Scan type : Progressive
Bits/(Pixel*Frame) : 0.276
Stream size : 3.74 GiB (86%)
Title : potroks
Writing library : x264 core 146 r2538 121396c
Encoding settings : cabac=1 / ref=9 / deblock=1:-2:-2 / analyse=0x3:0x113 / me=umh / subme=11 / psy=1 / psy_rd=1.00:0.06 / mixed_ref=1 / me_range=48 / chroma_me=1 / trellis=2 / 8x8dct=1 / cqm=0 / deadzone=21,11 / fast_pskip=0 / chroma_qp_offset=-3 / threads=9 / lookahead_threads=2 / sliced_threads=0 / nr=0 / decimate=0 / interlaced=0 / bluray_compat=0 / constrained_intra=0 / bframes=11 / b_pyramid=2 / b_adapt=2 / b_bias=0 / direct=3 / weightb=1 / open_gop=0 / weightp=2 / keyint=240 / keyint_min=23 / scenecut=40 / intra_refresh=0 / rc_lookahead=60 / rc=2pass / mbtree=0 / bitrate=4548 / ratetol=1.0 / qcomp=0.70 / qpmin=0 / qpmax=69 / qpstep=4 / cplxblur=20.0 / qblur=0.5 / vbv_maxrate=14000 / vbv_bufsize=14000 / nal_hrd=none / filler=0 / ip_ratio=1.40 / pb_ratio=1.30 / aq=1:0.80
Language : Russian
Default : Yes
Forced : No

Audio
ID : 2
Format : AC-3
Format/Info : Audio Coding 3
Mode extension : CM (complete main)
Format settings, Endianness : Big
Codec ID : A_AC3
Duration : 2 h 0 min
Bit rate mode : Constant
Bit rate : 640 kb/s
Channel(s) : 6 channels
Channel positions : Front: L C R, Side: L R, LFE
Sampling rate : 48.0 kHz
Frame rate : 31.250 FPS (1536 spf)
Compression mode : Lossy
Stream size : 552 MiB (12%)
Title : DD 5.1 @ 640 kbps - Blu-ray RUS
Language : Russian
Default : Yes
Forced : No

Text
ID : 3
Format : UTF-8
Codec ID : S_TEXT/UTF8
Codec ID/Info : UTF-8 Plain Text
Language : Russian
Default : No
Forced : No

Menu
00:00:00.000 : ru:Chapter 01
00:01:24.375 : ru:Chapter 02
00:11:59.208 : ru:Chapter 03
00:26:15.791 : ru:Chapter 04
00:38:43.625 : ru:Chapter 05
00:55:16.416 : ru:Chapter 06
01:12:21.333 : ru:Chapter 07
01:25:35.500 : ru:Chapter 08
01:38:52.333 : ru:Chapter 09
piratbit.pw



Скачать 28 панфиловцев через торрент http://i91.fastpic.ru/big/2017/0129/a6/363681d8c009dfb713f6a00b5bbb25a6.png Скачать фильм 28 панфиловцев через торрент бесплантно в хорошем качестве Описание: Осенью 1941-го года немецкие части, стоявшие возле Волоколамска, отделяло от Москвы каких-нибудь два часа по шоссе. Однако, на ... 9.6 10 10
Info! Золотая раздача, скачанное не засчитывается.
Торрент: Зарегистрирован [2017-01-29 07:41] · скачан: 490 раз
Статус: √ проверено
Размер: 4.37 GB
Как cкачать? Как скачать 28 панфиловцев через торрент | qTorrent

% Раздел Тема Автор DL S | L
Ultra HD (UHD: 2K, 4K, 8K) — видео сверхвысокой чёткости [ 21.68 GB ] 28 панфиловцев [2016 Военный UHD WEB-DL 2160p] [] sheker187 Скачать
1 | 0
Наши новые фильмы 2017 [ 6.49 GB ] 28 панфиловцев [2016 военный BDRip 720p ] R.G.Resident schultz Скачать
1 | 0
Наши фильмы (HD, WEB-DL 720p, 1080p) [ 4.18 GB ] 28 панфиловцев [2016 военный WEB-DL 1080p] killermax2013 Скачать
2 | 0
Наши фильмы (Blu-ray, BD-Remux, HDDVD) [ 36.18 GB ] 28 панфиловцев [2016 Военный Blu-Ray RUS] Russian Mafia Скачать
1 | 0
Наши фильмы (HD, WEB-DL 720p, 1080p) [ 7.74 GB ] 28 панфиловцев [2016 военный BDRip 1080p] -Lexx- Скачать
1 | 0
Наши новые фильмы 2016 [ 2.18 GB ] 28 панфиловцев [2016 Россия военный BDRip] Оригинал [] Twi7ter Скачать
1 | 0
Наши новые фильмы 2017 [ 2.89 GB ] 28 панфиловцев [2016 военный BDRip-AVC ] R.G.Resident schultz Скачать
1 | 0

28-11-2019 20:33  

Отключить всю рекламу на сайте

30-01-2017 08:57 28 панфиловцев Скачать торрент  

ну надо глянуть,а то про этот фильм много говорилиpiratbit.pw



06-02-2017 05:10 28 панфиловцев Скачать торрент  

Один из самых лучших фильмов снятых в России за последние лет 5 точно.И пусть многие говорят что данного подвига не было,фильм показывает и напоминает кому мы должны быть благодарны за мирное небо над головой.Игра актёров на высоте,картинка потрясающая,отличные спецэффекты и берущие за душу саундтреки.10 из 10.Очень советую.piratbit.pw



    Дорогой пользователь! Огромная просьба, поблагодарите релизера, оцените раздачу и оставьте свои комментарий, если Вы скачали 28 панфиловцев через торрент бесплатно! Внесите свою лепту в развитие PiratBit!
    Комментировать посты могут только пользователи прошедшие не сложную регистрацию
    Показать сообщения:    

    28 панфиловцев через торрент
    Скачать бесплатно 28 панфиловцев
    28 панфиловцев скачать торрент
    28 панфиловцев смотреть онлайн
    Cкачать фильм 28 панфиловцев бесплатно
    28 панфиловцев скачать торрент в хорошем качестве
    28 панфиловцев смотреть онлайн бесплатно в хорошем качестве


    Вы не можете начинать темы
    Вы не можете отвечать на сообщения
    Вы не можете редактировать свои сообщения
    Вы не можете удалять свои сообщения
    Вы не можете голосовать в опросах
    Вы не можете прикреплять файлы к сообщениям
    Вы можете скачивать файлы