Ссылка на приватное зеркало всего за 1$. Внимание количество ограничено!!!

iTunes

iTunes

iTunes

1

iTunes

iTunes

iTunes

iTunes

iTunes

30
pack

Новость дня

ВАЖНО

!!Акция!!

Alien_RageХит недели

RePack

Resident Evil 21

ИГРА 18+

pack

RePack

jed

!!Акция!!

Alien_Rage

RePack

fifa19

RePack

Assassins Creed: Odyssey

RePack

NEED FOR SPEED™ PAYBACK

4 сезон

9 сезон

Бесстыжие 9 сезон

Все сериалы

все сериалы на PB.wtf

RePack

FAR CRY 5
  

Джейсон Борн / Jason Bourne (Пол Гринграсс ) [2016, боевик, триллер, UHDWEBRip 2160p] Дубляж - [Лицензия] piratbit.pw

Джейсон Борн через торрент piratbit.pw

Размер: 53 GB | Добавлен: 3 года 2 мес. назад | Торрент скачан:140 раз
Скачать  

28-01-2017 11:26 Джейсон Борн Скачать торрент  

Джейсон БорнJason Bourne«Вы знаете его имя» Год выпуска: 2016
Страна: Великобритания, Китай, США
Жанр: боевик, триллер
Продолжительность: 02:03:44
Перевод: Дубляж - [Лицензия]
Субтитры: русские (Forced)
Режиссер: Пол Гринграсс
В ролях:
Мэтт Дэймон (Jason Bourne), Алисия Викандер (Heather Lee), Томми Ли Джонс (CIA Director Robert Dewey), Венсан Кассель (Asset), Джулия Стайлз (Nicky Parsons), Риз Ахмед (Aaron Kalloor), Ато Эссонда (Craig Jeffers), Скотт Шеперд (Director NI Edwin Russell), Билл Кэмп (Malcolm Smith), Винценц Кифер (Christian Dassault), Стефан Канкен (Baumen), Бен Стиляну (Greek Van Driver)
Описание:
Мир на грани катастрофы, а значит пришло время ему вернуться. Неаполь, Мюнхен, Нью-Йорк - его имя знают повсюду. Элитный суперагент, лучший из лучших, даже в Лас-Вегасе игра пойдет по его правилам. Он - Джейсон Борн.
Рейтинг:

MPAA: PG-13 - Детям до 13 лет просмотр не желателен
Премьера (мир): 3 июля 2016
Премьера (РФ): 1 сентября 2016, «UPI»
Качество: UHDWEBRip 2160p
Формат: MKV
Видео: V_MPEGH/ISO/HEVC, 3840x2160 (16:9), 58251 kbps, 23,976 fps, 0,293 bpp
Аудио №1: русский / DTS / 5.1 / 48 kHz / 768 kbps / 24 bit ||
Аудио №2: русский / AC3 / 5.1 / 48 kHz / 448 kbps / ||
Аудио №3: английский / AC3 / 5.1 / 48 kHz / 640 kbps /
General
Unique ID : 195367207824575746701672630962375840602 (0x92FA5B06A3D33A3C8C51718F236B535A)
Complete name : ДЖЕЙСОН БОРН (2016) 2160p 4K UltraHD.mkv
Format : Matroska
Format version : Version 4 / Version 2
File size : 53.0 GiB
Duration : 2 h 3 min
Overall bit rate : 61.3 Mb/s
Movie name : Jason.Bourne.2016.***селезень***
Encoded date : UTC 2017-01-17 02:31:21 / UTC 2016-12-17T19:44:38Z
Writing application : mkvmerge v9.6.0 ('Slave To Your Mind') 64bit
Writing library : libebml v1.3.4 + libmatroska v1.4.5 / Lavf56.1.0

Video
ID : 1
Format : HEVC
Format/Info : High Efficiency Video Coding
Format profile : Main 10@L6.1@Main
Codec ID : V_MPEGH/ISO/HEVC
Duration : 2 h 3 min
Bit rate : 58.3 Mb/s
Width : 3 840 pixels
Height : 2 160 pixels
Display aspect ratio : 16:9
Frame rate mode : Constant
Frame rate : 23.976 (24000/1001) FPS
Color space : YUV
Chroma subsampling : 4:2:0
Bit depth : 10 bits
Bits/(Pixel*Frame) : 0.293
Stream size : 50.3 GiB (95%)
Writing library : x265 1.9+3-63308f7658c3:[Windows][GCC 5.2.0][64 bit] 10bit
Encoding settings : wpp / ctu=64 / min-cu-size=8 / max-tu-size=32 / tu-intra-depth=1 / tu-inter-depth=1 / me=1 / subme=2 / merange=57 / no-rect / no-amp / max-merge=2 / temporal-mvp / no-early-skip / rdpenalty=0 / no-tskip / no-tskip-fast / strong-intra-smoothing / no-lossless / no-cu-lossless / no-constrained-intra / no-fast-intra / open-gop / no-temporal-layers / interlace=0 / keyint=240 / min-keyint=24 / scenecut=40 / rc-lookahead=20 / lookahead-slices=8 / bframes=4 / bframe-bias=0 / b-adapt=2 / ref=3 / limit-refs=3 / no-limit-modes / weightp / no-weightb / aq-mode=1 / qg-size=32 / aq-strength=1.00 / cbqpoffs=0 / crqpoffs=0 / rd=3 / psy-rd=2.00 / rdoq-level=0 / psy-rdoq=0.00 / signhide / deblock / sao / no-sao-non-deblock / b-pyramid / cutree / no-intra-refresh / rc=abr / bitrate=61000 / qcomp=0.60 / qpmin=0 / qpmax=51 / qpstep=4 / ipratio=1.40 / pbratio=1.30
Default : Yes
Forced : No
Color range : Limited
Color primaries : BT.709
Transfer characteristics : BT.709
Matrix coefficients : BT.601
Statistics Tags Issue : mkvmerge v9.6.0 ('Slave To Your Mind') 64bit 2017-01-17 02:31:21 / mkvmerge v9.6.0 ('Slave To Your Mind') 64bit 2017-01-17 02:31:21 / UTC 2016-12-17T19:44:38Z
FromStats_BitRate : 59536239
FromStats_Duration : 02:03:36.701000000
FromStats_FrameCount : 177823
FromStats_StreamSize : 55195311027

Audio #1
ID : 2
Format : DTS
Format/Info : Digital Theater Systems
Mode : 16
Format settings, Endianness : Big
Codec ID : A_DTS
Duration : 2 h 3 min
Bit rate mode : Constant
Bit rate : 768 kb/s
Channel(s) : 6 channels
Channel positions : Front: L C R, Side: L R, LFE
Sampling rate : 48.0 kHz
Frame rate : 93.750 FPS (512 spf)
Bit depth : 24 bits
Compression mode : Lossy
Delay relative to video : 32 s 495 ms
Stream size : 680 MiB (1%)
Title : Dub-DTS [License]
Language : Russian
Default : Yes
Forced : No
Statistics Tags Issue : mkvmerge v9.6.0 ('Slave To Your Mind') 64bit 2017-01-17 02:31:21 / mkvmerge v9.6.0 ('Slave To Your Mind') 64bit 2017-01-17 02:31:21 / UTC 2016-12-17T19:44:38Z
FromStats_BitRate : 767999
FromStats_Duration : 02:03:11.595000000
FromStats_FrameCount : 692962
FromStats_StreamSize : 709593088

Audio #2
ID : 3
Format : AC-3
Format/Info : Audio Coding 3
Mode extension : CM (complete main)
Format settings, Endianness : Big
Codec ID : A_AC3
Duration : 2 h 3 min
Bit rate mode : Constant
Bit rate : 448 kb/s
Channel(s) : 6 channels
Channel positions : Front: L C R, Side: L R, LFE
Sampling rate : 48.0 kHz
Frame rate : 31.250 FPS (1536 spf)
Compression mode : Lossy
Delay relative to video : 32 s 495 ms
Stream size : 396 MiB (1%)
Title : Dub-AC3 [License]
Language : Russian
Default : No
Forced : No
Statistics Tags Issue : mkvmerge v9.6.0 ('Slave To Your Mind') 64bit 2017-01-17 02:31:21 / mkvmerge v9.6.0 ('Slave To Your Mind') 64bit 2017-01-17 02:31:21 / UTC 2016-12-17T19:44:38Z
FromStats_BitRate : 448000
FromStats_Duration : 02:03:11.616000000
FromStats_FrameCount : 230988
FromStats_StreamSize : 413930496

Audio #3
ID : 4
Format : AC-3
Format/Info : Audio Coding 3
Mode extension : CM (complete main)
Format settings, Endianness : Big
Codec ID : A_AC3
Duration : 2 h 3 min
Bit rate mode : Constant
Bit rate : 640 kb/s
Channel(s) : 6 channels
Channel positions : Front: L C R, Side: L R, LFE
Sampling rate : 48.0 kHz
Frame rate : 31.250 FPS (1536 spf)
Compression mode : Lossy
Delay relative to video : 32 s 495 ms
Stream size : 566 MiB (1%)
Title : Original
Language : English
Default : No
Forced : No
Statistics Tags Issue : mkvmerge v9.6.0 ('Slave To Your Mind') 64bit 2017-01-17 02:31:21 / mkvmerge v9.6.0 ('Slave To Your Mind') 64bit 2017-01-17 02:31:21 / UTC 2016-12-17T19:44:38Z
FromStats_BitRate : 640000
FromStats_Duration : 02:03:11.584000000
FromStats_FrameCount : 230987
FromStats_StreamSize : 591326720

Text
ID : 5
Format : UTF-8
Codec ID : S_TEXT/UTF8
Codec ID/Info : UTF-8 Plain Text
Title : Forced
Language : Russian
Default : Yes
Forced : Yes
Statistics Tags Issue : mkvmerge v9.6.0 ('Slave To Your Mind') 64bit 2017-01-17 02:31:21 / mkvmerge v9.6.0 ('Slave To Your Mind') 64bit 2017-01-17 02:31:21 / UTC 2016-12-17T19:44:38Z
FromStats_BitRate : 2
FromStats_Duration : 01:51:19.506000000
FromStats_FrameCount : 45
FromStats_StreamSize : 2033


скриншот   скриншот   скриншот   скриншот   скриншот   скриншот  piratbit.pw



Скачать Джейсон Борн через торрент http://i90.fastpic.ru/big/2017/0128/a3/e779dc48a99ca24e3fae383453fc98a3.png Скачать фильм Джейсон Борн через торрент бесплантно в хорошем качестве Описание: Мир на грани катастрофы, а значит пришло время ему вернуться. Неаполь, Мюнхен, Нью-Йорк - его имя знают повсюду. Элитный ... 8.2 10 10
Info! Золотая раздача, скачанное не засчитывается.
Торрент: Зарегистрирован [2017-01-28 11:26] · скачан: 140 раз
Статус: √ проверено
Размер: 53 GB
Как cкачать? Как скачать Джейсон Борн через торрент | qTorrent

% Раздел Тема Автор DL S | L
Ultra HD (UHD: 2K, 4K, 8K) — видео сверхвысокой чёткости [ 75.77 GB ] Джейсон Борн / Jason Bourne [2016 UHD BDRemux2160p] DUB+ 4xAVO + VO sheker187 Скачать
1 | 0
Сборники и Сиквелы (48-60 fps) [ 13.93 GB ] Джейсон Борн: Квадрология / Jason Bourne: Quadrilogy [2002-2016 BDRip-HEVC 720p / 60 FPS Оригинал] Tiberiumsun69 Скачать
14 | 3
Ultra HD (UHD: 2K, 4K, 8K) — видео сверхвысокой чёткости [ 60.59 GB ] Джейсон Борн / Jason Bourne [2016 UHD BDRemux 2160p] DUB+AVO [ Blu-Ray CEE] bober100 Скачать
1 | 0
Фильмы (Blu-ray, BD-Remux, HDDVD) [ 30.54 GB ] Джейсон Борн / Jason Bourne [2016 BD Remux 1080p] DUB [ Blu-Ray CEE] bober100 Скачать
1 | 0
Фильмы 2016 [DVDrip, WEB-DLRip, HDrip] (DUB, MVO) [ 2.18 GB ] Джейсон Борн / Jason Bourne [2016 BDRip] - [] Twi7ter Скачать
1 | 0
Фильмы 2016 [DVDrip, WEB-DLRip, HDrip] (DUB, MVO) [ 1.46 GB ] Джейсон Борн / Jason Bourne [2016 BDRip] - [] Twi7ter Скачать
3 | 0
R.G. Resident & PiratVoice - Фильмы, Видео [ 6.76 GB ] Джейсон Борн / Jason Bourne [2016 BDRip 720p] - [BD CEE] R.G.Resident schultz Скачать
1 | 0

28-11-2019 20:33  

Отключить всю рекламу на сайте

    Дорогой пользователь! Огромная просьба, поблагодарите релизера, оцените раздачу и оставьте свои комментарий, если Вы скачали Джейсон Борн через торрент бесплатно! Внесите свою лепту в развитие PiratBit!
    Комментировать посты могут только пользователи прошедшие не сложную регистрацию
    Показать сообщения:    

    Джейсон Борн через торрент
    Скачать бесплатно Джейсон Борн
    Джейсон Борн скачать торрент
    Джейсон Борн смотреть онлайн
    Cкачать фильм Джейсон Борн бесплатно
    Джейсон Борн скачать торрент в хорошем качестве
    Джейсон Борн смотреть онлайн бесплатно в хорошем качестве


    Вы не можете начинать темы
    Вы не можете отвечать на сообщения
    Вы не можете редактировать свои сообщения
    Вы не можете удалять свои сообщения
    Вы не можете голосовать в опросах
    Вы не можете прикреплять файлы к сообщениям
    Вы можете скачивать файлы