Ссылка на приватное зеркало всего за 1$. Внимание количество ограничено!!!

iTunes

iTunes

iTunes

1

iTunes

iTunes

iTunes

iTunes

iTunes

30
pack

Новость дня

ВАЖНО

!!Акция!!

Alien_RageХит недели

RePack

Resident Evil 21

ИГРА 18+

pack

RePack

jed

!!Акция!!

Alien_Rage

RePack

fifa19

RePack

Assassins Creed: Odyssey

RePack

NEED FOR SPEED™ PAYBACK

4 сезон

9 сезон

Бесстыжие 9 сезон

Все сериалы

все сериалы на PB.wtf

RePack

FAR CRY 5
  

Безумный Макс: Дорога ярости / Mad Max: Fury Road (Джордж Миллер ) [2015, боевик, фантастика, приключения, UHDWEBRip 2160p] Дубляж - [Лицензия] piratbit.pw

Безумный Макс: Дорога ярости через торрент piratbit.pw

Размер: 42.18 GB | Добавлен: 3 года 2 мес. назад | Торрент скачан:468 раз
Скачать  

24-01-2017 12:29 Безумный Макс: Дорога ярости Скачать торрент  

Безумный Макс: Дорога яростиMad Max: Fury Road«Какой чудесный день»
Год выпуска: 2015
Страна: Австралия, США
Жанр: боевик, фантастика, приключения
Продолжительность: 02:00:21
Перевод: Дубляж - [Лицензия]
Режиссер: Джордж Миллер
Сценарий: Джордж Миллер, Брендан МакКарти, Ник Латурис
Продюсер: Джордж Миллер, Даг Митчелл, Брюс Берман
В ролях:
Том Харди (Max Rockatansky), Шарлиз Терон (Imperator Furiosa), Николас Холт (Nux), Хью Кияс-Бёрн (Immortan Joe), Райли Кио (Capable), Роузи Хантингтон-Уайтли (The Splendid Angharad), Зои Кравиц (Toast the Knowing), Эбби Ли (The Dag), Кортни Итон (Cheedo the Fragile), Нэйтан Джонс (Rictus Erectus), Джош Хелман (Slit), Джон Ховард (The People Eater)
Описание:
Преследуемый призраками беспокойного прошлого, Макс уверен, что лучший способ выжить - скитаться в одиночестве. Несмотря на это, он присоединяется к бунтарям, бегущим через всю пустыню на боевой фуре, под предводительством военачальника Фуриосы.
Рейтинг:

MPAA: R - Лицам до 17 лет обязательно присутствие взрослого
Премьера (мир): 7 мая 2015
Премьера (РФ): 14 мая 2015, «Каро-Премьер»
Качество: UHDWEBRip 2160p
Формат: MKV
Видео: V_MPEGH/ISO/HEVC, 3840x1600 (2.40:1), 39769 kbps, 23,976 fps, 0,270 bpp
Аудио №1: английский / DTS-HD / 48 kHz / 4686 kbps / 24 bit
Аудио №2: русский / DTS-HD / 48 kHz / 5723 kbps / 24 bit ||
General
Unique ID : 173784090399474731179357287782474043571 (0x82BD992DD9403E7AA2348AAD4CBFD0B3)
Complete name : Mad Max IV (2160p H265).mkv
Format : Matroska
Format version : Version 4 / Version 2
File size : 42.2 GiB
Duration : 2 h 0 min
Overall bit rate : 50.2 Mb/s
Encoded date : UTC 2016-10-01 09:00:30
Writing application : mkvmerge v9.2.0 ('Photograph') 64bit
Writing library : libebml v1.3.3 + libmatroska v1.4.4

Video
ID : 1
Format : HEVC
Format/Info : High Efficiency Video Coding
Format profile : Main 10@L5.1@Main
Codec ID : V_MPEGH/ISO/HEVC
Duration : 2 h 0 min
Bit rate : 39.8 Mb/s
Width : 3 840 pixels
Height : 1 600 pixels
Display aspect ratio : 2.40:1
Frame rate mode : Constant
Frame rate : 23.976 (24000/1001) FPS
Color space : YUV
Chroma subsampling : 4:2:0
Bit depth : 10 bits
Bits/(Pixel*Frame) : 0.270
Stream size : 33.4 GiB (79%)
Writing library : x265 1.9+3-63308f7658c3:[Windows][GCC 5.2.0][64 bit] 10bit
Encoding settings : wpp / ctu=64 / min-cu-size=8 / max-tu-size=32 / tu-intra-depth=1 / tu-inter-depth=1 / me=1 / subme=2 / merange=57 / no-rect / no-amp / max-merge=2 / temporal-mvp / no-early-skip / rdpenalty=0 / no-tskip / no-tskip-fast / strong-intra-smoothing / no-lossless / no-cu-lossless / no-constrained-intra / fast-intra / open-gop / no-temporal-layers / interlace=0 / keyint=240 / min-keyint=24 / scenecut=40 / rc-lookahead=15 / lookahead-slices=8 / bframes=4 / bframe-bias=0 / b-adapt=0 / ref=3 / limit-refs=3 / no-limit-modes / weightp / no-weightb / aq-mode=1 / qg-size=32 / aq-strength=1.00 / cbqpoffs=0 / crqpoffs=0 / rd=2 / psy-rd=2.00 / rdoq-level=0 / psy-rdoq=0.00 / signhide / deblock / sao / no-sao-non-deblock / b-pyramid / cutree / no-intra-refresh / rc=abr / bitrate=40000 / qcomp=0.60 / qpmin=0 / qpmax=51 / qpstep=4 / ipratio=1.40 / pbratio=1.30
Default : Yes
Forced : No
Color range : Limited
Color primaries : BT.709
Transfer characteristics : BT.709
Matrix coefficients : BT.601

Audio #1
ID : 2
Format : DTS
Format/Info : Digital Theater Systems
Format profile : MA / Core
Mode : 16
Format settings, Endianness : Big
Codec ID : A_DTS
Duration : 2 h 0 min
Bit rate mode : Variable / Constant
Bit rate : 4 686 kb/s / 1 509 kb/s
Channel(s) : 8 channels / 6 channels
Channel positions : Front: L C R, Side: L R, Back: L R, LFE / Front: L C R, Side: L R, LFE
Sampling rate : 48.0 kHz
Frame rate : 93.750 FPS (512 spf)
Bit depth : 24 bits
Compression mode : Lossless / Lossy
Delay relative to video : 4 ms
Stream size : 3.94 GiB (9%)
Title : Оригинал
Language : English
Default : Yes
Forced : No

Audio #2
ID : 3
Format : DTS
Format/Info : Digital Theater Systems
Format profile : MA / Core
Mode : 16
Format settings, Endianness : Big
Codec ID : A_DTS
Duration : 2 h 0 min
Bit rate mode : Variable / Constant
Bit rate : 5 723 kb/s / 1 509 kb/s
Channel(s) : 8 channels / 6 channels
Channel positions : Front: L C R, Side: L R, Back: L R, LFE / Front: L C R, Side: L R, LFE
Sampling rate : 48.0 kHz
Frame rate : 93.750 FPS (512 spf)
Bit depth : 24 bits
Compression mode : Lossless / Lossy
Delay relative to video : 4 ms
Stream size : 4.81 GiB (11%)
Title : Дубляж
Language : Russian
Default : No
Forced : No


скриншот   скриншот   скриншот   скриншот   скриншот   скриншот  piratbit.pw



Скачать Безумный Макс: Дорога ярости через торрент http://i91.fastpic.ru/big/2017/0124/ad/b9e2e552898fc2bb7a3fe806915333ad.png Скачать фильм Безумный Макс: Дорога ярости через торрент бесплантно в хорошем качестве Описание: Преследуемый призраками беспокойного прошлого, Макс уверен, что лучший способ выжить - скитаться в одиночестве. Несмотря на это, ... 9.5 10 18
Info! Золотая раздача, скачанное не засчитывается.
Торрент: Зарегистрирован [2017-01-24 12:29] · скачан: 468 раз
Статус: √ проверено
Размер: 42.18 GB
Как cкачать? Как скачать Безумный Макс: Дорога ярости через торрент | qTorrent

% Раздел Тема Автор DL S | L
Фильмы [HD 720p, 1080p] (Хороший звук DUB, MVO) [ 5.47 GB ] Безумный Макс: Дорога ярости / Mad Max: Fury Road [2015 BDRip 1080p-HEVC 10bit ] ADVOKAT69 Скачать
4 | 1
Ultra HD (UHD: 2K, 4K, 8K) — видео сверхвысокой чёткости [ 45.43 GB ] Безумный Макс: Дорога ярости / Mad Max: Fury Road [2015 UHD BDRip 2160p] [SDR] DUB + MVO + 6xAVO sheker187 Скачать
1 | 0
Ultra HD (UHD: 2K, 4K, 8K) — видео сверхвысокой чёткости [ 26.19 GB ] Безумный Макс: Дорога ярости / Mad Max: Fury Road [2015 UHD BDRip 2160p] sheker187 Скачать
2 | 0
Ultra HD (UHD: 2K, 4K, 8K) — видео сверхвысокой чёткости [ 53.08 GB ] Безумный Макс: Дорога ярости / Mad Max: Fury Road [2015 постапокалипсис UHD Blu-ray 2160p] DUB [] bober100 Скачать
1 | 0
Фильмы [HD 720p, 1080p] (Хороший звук DUB, MVO) [ 8.1 GB ] Безумный Макс: Дорога ярости / Mad Max: Fury Road [2015 BDRip-HEVC 1080p] DUB [] bober100 Скачать
1 | 0
Фильмы с авторской озвучкой [ 2.05 GB ] Безумный Макс: Дорога ярости / Mad Max: Fury Road [2015 BDRip] [AVO] killermax2013 Скачать
2 | 0
Ultra HD (UHD: 2K, 4K, 8K) — видео сверхвысокой чёткости [ 76.51 GB ] Безумный Макс: Дорога ярости / Mad Max: Fury Road [2015 UHD BDRemux 2160p] DUB + MVO + 6xAVO sheker187 Скачать
1 | 0

28-11-2019 20:33  

Отключить всю рекламу на сайте

    Дорогой пользователь! Огромная просьба, поблагодарите релизера, оцените раздачу и оставьте свои комментарий, если Вы скачали Безумный Макс: Дорога ярости через торрент бесплатно! Внесите свою лепту в развитие PiratBit!
    Комментировать посты могут только пользователи прошедшие не сложную регистрацию
    Показать сообщения:    

    Безумный Макс: Дорога ярости через торрент
    Скачать бесплатно Безумный Макс: Дорога ярости
    Безумный Макс: Дорога ярости скачать торрент
    Безумный Макс: Дорога ярости смотреть онлайн
    Cкачать фильм Безумный Макс: Дорога ярости бесплатно
    Безумный Макс: Дорога ярости скачать торрент в хорошем качестве
    Безумный Макс: Дорога ярости смотреть онлайн бесплатно в хорошем качестве


    Вы не можете начинать темы
    Вы не можете отвечать на сообщения
    Вы не можете редактировать свои сообщения
    Вы не можете удалять свои сообщения
    Вы не можете голосовать в опросах
    Вы не можете прикреплять файлы к сообщениям
    Вы можете скачивать файлы