Ссылка на приватное зеркало всего за 1$. Внимание количество ограничено!!!

iTunes

iTunes

iTunes

1

iTunes

iTunes

iTunes

iTunes

iTunes

30
pack

Новость дня

ВАЖНО

!!Акция!!

Alien_RageХит недели

RePack

Resident Evil 21

ИГРА 18+

pack

RePack

jed

!!Акция!!

Alien_Rage

RePack

fifa19

RePack

Assassins Creed: Odyssey

RePack

NEED FOR SPEED™ PAYBACK

4 сезон

9 сезон

Бесстыжие 9 сезон

Все сериалы

все сериалы на PB.wtf

RePack

FAR CRY 5
  

Звездный путь: Трилогия / Star Trek: Trilogy (Джей Джей Абрамс, Джастин Лин) [2009-2016, Фантастика, боевик, приключения, WEB-DLRip 2160p] [DUB] Лицензия piratbit.pw

Звездный путь: Трилогия через торрент piratbit.pw

Раздают: 4 [ 491 KB/s ]
Размер: 179.41 GB | Добавлен: 3 года 2 мес. назад | Торрент скачан:288 раз
Скачать  

22-01-2017 19:50 Звездный путь: Трилогия Скачать торрент  

Название: Звездный путь: Трилогия
Оригинальное название: Star Trek: Trilogy
Год выпуска: 2009-2016
Продолжительность: 02:06:48, 02:12:07, 02:02:39
Перевод: Дублированный
Жанр: Фантастика, боевик, приключения
Выпущено: США, Paramount Pictures
Режиссер: Джей Джей Абрамс, Джастин Лин
В ролях:
Леонард Нимой, ДеФорест Келли, Джеймс Дуэн, Джордж Такей, Маджел Бэррет, Уолтер Кениг, Нишелль Николс, Персис Хамбатта, Стивен Коллинз,Биби Беш, Мерритт Бутрик, Пол Уинфилд, Фил Моррис, Скотт Макгиннис, Джейн Уайатт, Кэтрин Хикс, Марк Ленард, Дэвид Уорнер, Лоуренс Лакинбилл,Чарльз Купер, Ким Кэтролл, Грэйс Ли Уитни, Крис Пайн, Закари Куинто, Зои Салдана, Карл Урбан
О фильме:
Вселенная «Звёздного пути» рисует космическое будущее, на первый взгляд кажущееся утопией и в котором существует Объединённая федерация планет во главе с Землёй. В это же время значительные области Галактики остаются неизученными и готовят исследователям множество сюрпризов и открытий. «Наша цель — смело идти туда, где не ступала нога человека» — таков девиз героев «Звёздного пути». Вселенная «Звёздного пути» — одна из наиболее детально проработанных вымышленных вселенных. Каждый персонаж имеет свою биографию, каждая цивилизация — свою культуру, традиции и историю. В официальных источниках можно найти детальную историю вселенной, технические характеристики звездолётов, точные описания каждой мелочи — от рецептов традиционных клингонских блюд до правил игры в трёхмерные шахматы.
Звездный путь / Star Trek«Будущее начинается» Год выпуска:2009
Страна:США, Германия
Жанр:фантастика, боевик, приключения
Продолжительность: 02:06:50
Перевод:Профессиональный (полное дублирование)
Режиссер:Джей Джей Абрамс / J.J. Abrams
Сценарий: Роберто Орси / Roberto Orci, Алекс Куртцман / Alex Kurtzman, Джин Родденберри / Gene Roddenberry
Продюсер: Джей Джей Абрамс / J.J. Abrams, Дэймон Линделоф / Damon Lindelof, Дэвид Бэроннэф / David Baronoff, Брайан Берк / Bryan Burk, Джеффри Чернов / Jeffrey Chernov
В ролях:
Крис Пайн (Kirk), Закари Куинто (Spock), Зои Салдана (Uhura), Карл Урбан (Bones), Эрик Бана (Nero), Антон Ельчин (Chekov), Саймон Пегг (Scotty), Джон Чо (Sulu), Леонард Нимой (Spock Prime), Брюс Гринвуд (Pike), Вайнона Райдер (Amanda Grayson), Бен Кросс (Sarek)
Описание:
Когда Нерон с планеты Ромул приходит из будущего, чтобы отомстить Федерации, конкуренты Кирк и Спок должны объединиться, чтобы не дать ему разрушить все, что им дорого. Во время этого будоражащего путешествия, наполненного эффектными боями, юмором и космическими угрозами, новоиспеченные члены команды военного корабля «Энтерпрайз» смело встретятся лицом к лицу с невообразимыми опасностями.
Рейтинг

MPAA: PG-13 - Детям до 13 лет просмотр не желателен
Качество:WEB-DLRip 2160p
Формат:MKV
Видео: HEVC, 3840x2160 (16:9) 23,976 fps 60,6 Mbps 0.305
Аудио №1: русский / AC3 / 5.1 / 48 kHz / 640 kbps / || - Дублированный
Аудио №2: английский / DTS / 5.1 / 48 kHz / 1510 kbps / 24 bit- Оригинал
Общее
Уникальный идентификатор : 183949697668252819218824312351388595302 (0x8A636C5048899D12B8D45CDD3983F466)
Полное имя : Star trek\Star trek (2160p H265).mkv
Формат : Matroska
Версия формата : Version 4 / Version 2
Размер файла : 57,8 Гбайт
Продолжительность : 2 ч. 6 м.
Общий поток : 65,2 Мбит/сек
Дата кодирования : UTC 2016-10-03 07:58:57
Программа кодирования : mkvmerge v9.2.0 ('Photograph') 64bit
Библиотека кодирования : libebml v1.3.3 + libmatroska v1.4.4

Видео
Идентификатор : 1
Формат : HEVC
Формат/Информация : High Efficiency Video Coding
Профиль формата : Main 10@L6.1@Main
Идентификатор кодека : V_MPEGH/ISO/HEVC
Продолжительность : 2 ч. 6 м.
Битрейт : 60,6 Мбит/сек
Ширина : 3840 пикселей
Высота : 2160 пикселей
Соотношение сторон : 16:9
Режим частоты кадров : Постоянный
Частота кадров : 23,976 (24000/1001) кадра/сек
Цветовое пространство : YUV
Субдискретизация насыщенности : 4:2:0
Битовая глубина : 10 бит
Бит/(Пиксели*Кадры) : 0.305
Размер потока : 53,6 Гбайт (93%)
Заголовок : Star Trek
Библиотека кодирования : x265 1.9+3-63308f7658c3:[Windows][GCC 5.2.0][64 bit] 10bit
Настройки программы : wpp / ctu=64 / min-cu-size=8 / max-tu-size=32 / tu-intra-depth=1 / tu-inter-depth=1 / me=1 / subme=2 / merange=57 / no-rect / no-amp / max-merge=2 / temporal-mvp / no-early-skip / rdpenalty=0 / no-tskip / no-tskip-fast / strong-intra-smoothing / no-lossless / no-cu-lossless / no-constrained-intra / no-fast-intra / open-gop / no-temporal-layers / interlace=0 / keyint=240 / min-keyint=24 / scenecut=40 / rc-lookahead=20 / lookahead-slices=8 / bframes=4 / bframe-bias=0 / b-adapt=2 / ref=3 / limit-refs=3 / no-limit-modes / weightp / no-weightb / aq-mode=1 / qg-size=32 / aq-strength=1.00 / cbqpoffs=0 / crqpoffs=0 / rd=3 / psy-rd=2.00 / rdoq-level=0 / psy-rdoq=0.00 / signhide / deblock / sao / no-sao-non-deblock / b-pyramid / cutree / no-intra-refresh / rc=abr / bitrate=61000 / qcomp=0.60 / qpmin=0 / qpmax=51 / qpstep=4 / ipratio=1.40 / pbratio=1.30
Default : Да
Forced : Нет
Цветовой диапазон : Limited
Основные цвета : BT.709
Характеристики трансфера : BT.709
Коэффициенты матрицы : BT.601

Аудио #1
Идентификатор : 2
Формат : AC-3
Формат/Информация : Audio Coding 3
Расширение режима : CM (complete main)
Параметр Endianness формата : Big
Идентификатор кодека : A_AC3
Продолжительность : 2 ч. 6 м.
Вид битрейта : Постоянный
Битрейт : 640 Кбит/сек
Каналы : 6 каналов
Расположение каналов : Front: L C R, Side: L R, LFE
Частота : 48,0 КГц
Частота кадров : 31,250 кадров/сек (1536 spf)
Метод сжатия : С потерями
Задержка видео : 11 мс.
Размер потока : 580 Мбайт (1%)
Заголовок : Дубляж
Язык : Russian
Default : Да
Forced : Нет

Аудио #2
Идентификатор : 3
Формат : DTS
Формат/Информация : Digital Theater Systems
Профиль формата : MA / Core
Режим : 16
Параметр Endianness формата : Big
Идентификатор кодека : A_DTS
Продолжительность : 2 ч. 6 м.
Вид битрейта : Переменный / Постоянный
Битрейт : 4015 Кбит/сек / 1509 Кбит/сек
Каналы : 6 каналов
Расположение каналов : Front: L C R, Side: L R, LFE
Частота : 48,0 КГц
Частота кадров : 93,750 кадра/сек (512 spf)
Битовая глубина : 24 бит
Метод сжатия : Без потерь / Lossy
Размер потока : 3,56 Гбайт (6%)
Заголовок : Оригинал
Язык : English
Default : Нет
Forced : Нет


скриншот   скриншот   скриншот   скриншот   скриншот   скриншот   скриншот  
Стартрек: Возмездие / Star Trek Into Darkness«Beyond the darkness, lies greatness» Информация о фильме
Название: Стартрек: Возмездие
Оригинальное название: Star Trek Into Darkness
Год выхода: 2013
Страна: США
Студия: Paramount Pictures
Продолжительность: 02:12:08
Перевод: Дубляж
Жанр: фантастика, боевик, приключения
Режиссер: Джей Джей Абрамс
В ролях:
Крис Пайн, Закари Куинто, Бенедикт Камбербатч, Саймон Пегг, Карл Урбан, Зои Салдана, Элис Ив, Джон Чо, Антон Ельчин, Питер Уэллер
Описание:
Вернувшись на Землю, команда корабля «Энтерпрайз» обнаруживает, что деятельность и принципы их организации подорваны изнутри. Флот скован необъяснимым ужасом и бездействует, пока мир все глубже погружается в бездну.
Капитан Кирк берет на себя руководство операцией по поимке злодея, ответственного за этот хаос и способного уничтожить все человечество.
В запутанной игре не на жизнь, а на смерть, любовь и дружба будут принесены в жертву ради единственного, что осталось у Кирка - его команды.


Качество: WEB-DLRip 2160p
Формат: MKV
Видео: HEVC, 3840x2160 (16:9) 23,976 fps 60,0 Mbps 0.301
Аудио#1: Russian DTS 5.1 48 kHz 1509 kbps avg 24 bit |Дубляж|
Аудио#2: English DTS 7.1 48 kHz 4866 kbps avg |Original|

Общее
Уникальный идентификатор : 232404884810708478191578195098146218773 (0xAED78D7CF3F5AD1CBC56D1F4C23CA315)
Полное имя : Star trek\Star trek 2 (2160p H265).mkv
Формат : Matroska
Версия формата : Version 4 / Version 2
Размер файла : 63,5 Гбайт
Продолжительность : 2 ч. 12 м.
Общий поток : 68,8 Мбит/сек
Название фильма : Release for RuTracker
Дата кодирования : UTC 2016-10-01 11:18:33
Программа кодирования : mkvmerge v9.2.0 ('Photograph') 64bit
Библиотека кодирования : libebml v1.3.3 + libmatroska v1.4.4

Видео
Идентификатор : 3
Формат : HEVC
Формат/Информация : High Efficiency Video Coding
Профиль формата : Main 10@L6.1@Main
Идентификатор кодека : V_MPEGH/ISO/HEVC
Продолжительность : 2 ч. 12 м.
Битрейт : 60,0 Мбит/сек
Ширина : 3840 пикселей
Высота : 2160 пикселей
Соотношение сторон : 16:9
Режим частоты кадров : Постоянный
Частота кадров : 23,976 (24000/1001) кадра/сек
Цветовое пространство : YUV
Субдискретизация насыщенности : 4:2:0
Битовая глубина : 10 бит
Бит/(Пиксели*Кадры) : 0.301
Размер потока : 55,3 Гбайт (87%)
Библиотека кодирования : x265 1.9+3-63308f7658c3:[Windows][GCC 5.2.0][64 bit] 10bit
Настройки программы : wpp / ctu=64 / min-cu-size=8 / max-tu-size=32 / tu-intra-depth=1 / tu-inter-depth=1 / me=1 / subme=2 / merange=57 / no-rect / no-amp / max-merge=2 / temporal-mvp / no-early-skip / rdpenalty=0 / no-tskip / no-tskip-fast / strong-intra-smoothing / no-lossless / no-cu-lossless / no-constrained-intra / no-fast-intra / open-gop / no-temporal-layers / interlace=0 / keyint=240 / min-keyint=24 / scenecut=40 / rc-lookahead=20 / lookahead-slices=8 / bframes=4 / bframe-bias=0 / b-adapt=2 / ref=3 / limit-refs=3 / no-limit-modes / weightp / no-weightb / aq-mode=1 / qg-size=32 / aq-strength=1.00 / cbqpoffs=0 / crqpoffs=0 / rd=3 / psy-rd=2.00 / rdoq-level=0 / psy-rdoq=0.00 / signhide / deblock / sao / no-sao-non-deblock / b-pyramid / cutree / no-intra-refresh / rc=abr / bitrate=61000 / qcomp=0.60 / qpmin=0 / qpmax=51 / qpstep=4 / ipratio=1.40 / pbratio=1.30
Default : Да
Forced : Нет
Цветовой диапазон : Limited
Основные цвета : BT.709
Характеристики трансфера : BT.709
Коэффициенты матрицы : BT.601

Аудио #1
Идентификатор : 1
Формат : DTS
Формат/Информация : Digital Theater Systems
Профиль формата : MA / Core
Режим : 16
Параметр Endianness формата : Big
Идентификатор кодека : A_DTS
Продолжительность : 2 ч. 12 м.
Вид битрейта : Переменный / Постоянный
Битрейт : 4055 Кбит/сек / 1509 Кбит/сек
Каналы : 6 каналов
Расположение каналов : Front: L C R, Side: L R, LFE
Частота : 48,0 КГц
Частота кадров : 93,750 кадра/сек (512 spf)
Битовая глубина : 24 бит
Метод сжатия : Без потерь / Lossy
Задержка видео : -2 мс.
Размер потока : 3,74 Гбайт (6%)
Заголовок : Дубляж [Blu-ray]
Язык : Russian
Default : Да
Forced : Нет

Аудио #2
Идентификатор : 2
Формат : DTS
Формат/Информация : Digital Theater Systems
Идентификатор кодека : A_DTS
Продолжительность : 2 ч. 12 м.
Битрейт : 4866 Кбит/сек
Каналы : 8 каналов
Частота : 48,0 КГц
Частота кадров : 93,750 кадра/сек (512 spf)
Битовая глубина : 24 бит
Метод сжатия : С потерями
Задержка видео : -2 мс.
Размер потока : 4,49 Гбайт (7%)
Заголовок : Оригинал
Язык : English
Default : Нет
Forced : Нет


скриншот   скриншот   скриншот   скриншот   скриншот   скриншот   скриншот  
Стартрек: Бесконечность / Star Trek Beyond«Fifty year. One legacy» Название: Стартрек: Бесконечность
Оригинальное название: Star Trek Beyond
Год выпуска: 2016
Страна: США
Жанр: фантастика, боевик, триллер, приключения
Продолжительность: 2:02:22
Перевод: Дублированный [Лицензия]
Режиссер: Джастин Лин
В ролях:
Крис Пайн, Закари Куинто, Саймон Пегг, Карл Урбан, Зои Салдана, Джон Чо, Антон Ельчин, Идрис Эльба, София Бутелла, Джо Таслим
Описание:
Бесстрашная команда крейсера Звездного Флота «Энтерпрайз» исследует неизведанные глубины космоса. Во время этого полного опасностей путешествия герои сталкиваются с таинственной силой, ставящей под угрозу не только их миссию и стабильность Федерации, но и весь миропорядок.

Качество: WEB-DLRip 2160p
Формат: MKV
Видео: HEVC, 3840x2160 (16:9) 23,976 59,5 Mbps 0.299
Аудио 1: Russian, 48 kHz 24 bit DTS 5.1, 1509 kbps | Дубляж
Аудио 2: English, 48 kHz DTS 7.1, 4367 kbps | Оригинал
Общее
Уникальный идентификатор : 192189811044002866264578577048612476749 (0x9096694507E4EF268F5AA1303C1D974D)
Полное имя : Star trek\Star trek 3 (2160p H265).mkv
Формат : Matroska
Версия формата : Version 4 / Version 2
Размер файла : 58,1 Гбайт
Продолжительность : 2 ч. 2 м.
Режим общего битрейта : Переменный
Общий поток : 67,8 Мбит/сек
Дата кодирования : UTC 2016-11-12 06:45:18
Программа кодирования : mkvmerge v9.5.0 ('Quiet Fire') 64bit
Библиотека кодирования : libebml v1.3.4 + libmatroska v1.4.5

Видео
Идентификатор : 3
Формат : HEVC
Формат/Информация : High Efficiency Video Coding
Профиль формата : Main 10@L6.1@Main
Идентификатор кодека : V_MPEGH/ISO/HEVC
Продолжительность : 2 ч. 2 м.
Битрейт : 59,5 Мбит/сек
Ширина : 3840 пикселей
Высота : 2160 пикселей
Соотношение сторон : 16:9
Режим частоты кадров : Постоянный
Частота кадров : 23,976 (24000/1001) кадра/сек
Цветовое пространство : YUV
Субдискретизация насыщенности : 4:2:0
Битовая глубина : 10 бит
Бит/(Пиксели*Кадры) : 0.299
Размер потока : 50,9 Гбайт (88%)
Библиотека кодирования : x265 1.9+3-63308f7658c3:[Windows][GCC 5.2.0][64 bit] 10bit
Настройки программы : wpp / ctu=64 / min-cu-size=8 / max-tu-size=32 / tu-intra-depth=1 / tu-inter-depth=1 / me=1 / subme=2 / merange=57 / no-rect / no-amp / max-merge=2 / temporal-mvp / no-early-skip / rdpenalty=0 / no-tskip / no-tskip-fast / strong-intra-smoothing / no-lossless / no-cu-lossless / no-constrained-intra / no-fast-intra / open-gop / no-temporal-layers / interlace=0 / keyint=240 / min-keyint=24 / scenecut=40 / rc-lookahead=20 / lookahead-slices=8 / bframes=4 / bframe-bias=0 / b-adapt=2 / ref=3 / limit-refs=3 / no-limit-modes / weightp / no-weightb / aq-mode=1 / qg-size=32 / aq-strength=1.00 / cbqpoffs=0 / crqpoffs=0 / rd=3 / psy-rd=2.00 / rdoq-level=0 / psy-rdoq=0.00 / signhide / deblock / sao / no-sao-non-deblock / b-pyramid / cutree / no-intra-refresh / rc=abr / bitrate=61000 / qcomp=0.60 / qpmin=0 / qpmax=51 / qpstep=4 / ipratio=1.40 / pbratio=1.30
Default : Да
Forced : Нет
Цветовой диапазон : Limited
Основные цвета : BT.709
Характеристики трансфера : BT.709
Коэффициенты матрицы : BT.601

Аудио #1
Идентификатор : 1
Формат : DTS
Формат/Информация : Digital Theater Systems
Профиль формата : MA / Core
Режим : 16
Параметр Endianness формата : Big
Идентификатор кодека : A_DTS
Продолжительность : 2 ч. 2 м.
Вид битрейта : Переменный / Постоянный
Битрейт : 3959 Кбит/сек / 1509 Кбит/сек
Каналы : 6 каналов
Расположение каналов : Front: L C R, Side: L R, LFE
Частота : 48,0 КГц
Частота кадров : 93,750 кадра/сек (512 spf)
Битовая глубина : 24 бит
Метод сжатия : Без потерь / Lossy
Задержка видео : 17 с.
Размер потока : 3,38 Гбайт (6%)
Заголовок : Дубляж
Язык : Russian
Default : Да
Forced : Нет

Аудио #2
Идентификатор : 2
Формат : Atmos / TrueHD
Идентификатор кодека : A_TRUEHD
Продолжительность : 2 ч. 2 м.
Вид битрейта : Переменный
Битрейт : 4367 Кбит/сек
Максимальный битрейт : 7641 Кбит/сек
Каналы : Object Based / 8 каналов
Расположение каналов : Object Based / Front: L C R, Side: L R, Back: L R, LFE
Частота : / 48,0 КГц
Частота кадров : 1200,000 кадров/сек (40 spf)
Метод сжатия : Без потерь
Задержка видео : 17 с.
Размер потока : 3,73 Гбайт (6%)
Заголовок : English
Язык : English
Default : Нет
Forced : Нет


скриншот   скриншот   скриншот   скриншот   скриншот   скриншот   скриншот  
piratbit.pw



Скачать Звездный путь: Трилогия через торрент http://i91.fastpic.ru/big/2017/0122/5d/c639bfb549111a0a9973857e187e8e5d.png Скачать фильм Звездный путь: Трилогия через торрент бесплантно в хорошем качестве Описание:Когда Нерон с планеты Ромул приходит из будущего, чтобы отомстить Федерации, конкуренты Кирк и Спок должны объединиться, чтобы не ... 10 10 26
Info! Золотая раздача, скачанное не засчитывается.
Торрент: Зарегистрирован [2017-01-22 19:50] · скачан: 288 раз
Статус: √ проверено
Размер: 179.41 GB
Как cкачать? Как скачать Звездный путь: Трилогия через торрент | qTorrent



Последний раз редактировалось: sheker187 (2017-02-03 11:21), всего редактировалось 1 раз

28-11-2019 20:33  

Отключить всю рекламу на сайте

27-01-2017 06:00 Звездный путь: Трилогия Скачать торрент  

И это весит столько гигов? Картинка зерном!piratbit.pw



09-05-2017 08:28 Звездный путь: Трилогия Скачать торрент  

andrey1987 писал(а):

И это весит столько гигов? Картинка зерном!

180, всё ж написано.piratbit.pw



21-07-2017 09:56 Звездный путь: Трилогия Скачать торрент  

Нечего нового не увидишь с таким качеством .piratbit.pw



13-02-2018 15:38 Звездный путь: Трилогия Скачать торрент  

HDR нет, ацтой рипpiratbit.pw



    Дорогой пользователь! Огромная просьба, поблагодарите релизера, оцените раздачу и оставьте свои комментарий, если Вы скачали Звездный путь: Трилогия через торрент бесплатно! Внесите свою лепту в развитие PiratBit!
    Комментировать посты могут только пользователи прошедшие не сложную регистрацию
    Показать сообщения:    

    Звездный путь: Трилогия через торрент
    Скачать бесплатно Звездный путь: Трилогия
    Звездный путь: Трилогия скачать торрент
    Звездный путь: Трилогия смотреть онлайн
    Cкачать фильм Звездный путь: Трилогия бесплатно
    Звездный путь: Трилогия скачать торрент в хорошем качестве
    Звездный путь: Трилогия смотреть онлайн бесплатно в хорошем качестве


    Вы не можете начинать темы
    Вы не можете отвечать на сообщения
    Вы не можете редактировать свои сообщения
    Вы не можете удалять свои сообщения
    Вы не можете голосовать в опросах
    Вы не можете прикреплять файлы к сообщениям
    Вы можете скачивать файлы