Marvel's Avengers Deluxe Edition (супер цена) 159р. Внимание количество ограничено!!!

2 сезон

iTunes

iTunes

1

iTunes

iTunes

iTunes

WEBRip

iTunes

30
pack

Новость дня

ВАЖНО

!!Акция!!

Alien_RageХит недели

RePack

Horizon Zero Dawn

ИГРА 18+

pack

RePack

jed

!!Акция!!

Alien_Rage

RePack

fifa19

RePack

Assassins Creed: Odyssey

RePack

NEED FOR SPEED™ PAYBACK

4 сезон

9 сезон

Бесстыжие 9 сезон

Все сериалы

все сериалы на PB.wtf

RePack

FAR CRY 5
  

Ёлки 5 (Тимур Бекмамбетов, Вадим Перельман, Индар Джендубаев) [2016, семейный, комедия, WEB-DL 720p] Оригинальный [iTunes] piratbit.pw

Ёлки 5 через торрент piratbit.pw

Размер: 2.7 GB | Добавлен: 3 года 8 мес. назад | Торрент скачан:547 раз
Скачать  

19-01-2017 20:42 Ёлки 5 Скачать торрент  


Ёлки 5
««Начинаем отмечать»»

ИНФОРМАЦИЯ:
Год выпуска:2016
Страна: Россия
Жанр: семейный, комедия
Продолжительность: 01:27:43
Перевод: Оригинальный
Режиссер: Тимур Бекмамбетов, Вадим Перельман, Индар Джендубаев

В Ролях:


Иван Ургант, Сергей Светлаков, Гоша Куценко, Мария Шукшина, Александр Головин, Анна Хилькевич, Александр Домогаров мл., Кирилл Плетнёв, Александр Робак, Анастасия Сметанина, Ян Цапник, Катерина Шпица

ОПИСАНИЕ:
В этот новый год любимые герои «Ёлок» всё также делают глупости и надеются на чудо. Боре нужно как-то восстановить семейное счастье и ради этого он готов украсть у лучшего друга Жени пингвина. Лыжник и Сноубордист, так и не повзрослевшие, устраивают сумасшедшую погоню за ёлкой. Баба Маня осваивает интернет в надежде найти старую любовь. Профессор из Екатеринбурга остепенился, но теперь сам сходит с ума от ревности. На далеком Севере инженер по технике безопасности должен рискнуть и, наконец, признаться в любви. Ну а пингвину просто очень нужно сесть на яйцо...

  • Мировая премьера:23 декабря 2016

    ТЕХ.ДАННЫЕ:
    Качество: WEB-DL 720p
    Формат: MKV
    Видео: AVC, 1280x536 (2.40:1), 4024 kbps, 24 fps, 0,244 bpp
    Аудио: русский / AC3 / 5.1 / 48 kHz / 384 kbps / ||
    Навигация по главам: есть


    General
    Unique ID : 241862701162449819162532815447171945478 (0xB5F50FD60D251EBE9EE6D60A1BAE5406)
    Complete name : W:\Торенты\ELLKee.5.2O16.O.WEB-DL.72Op.mkv
    Format : Matroska
    Format version : Version 2
    File size : 2.70 GiB
    Duration : 1 h 27 min
    Overall bit rate : 4 411 kb/s
    Encoded date : UTC 2017-01-19 19:05:50
    Writing application : mkvmerge v8.3.0 ('Over the Horizon') 64bit
    Writing library : libebml v1.3.1 + libmatroska v1.4.2

    Video
    ID : 1
    Format : AVC
    Format/Info : Advanced Video Codec
    Format profile : Main@L3.1
    Format settings, CABAC : No
    Format settings, ReFrames : 2 frames
    Codec ID : V_MPEG4/ISO/AVC
    Duration : 1 h 27 min
    Bit rate : 4 025 kb/s
    Width : 1 280 pixels
    Height : 536 pixels
    Display aspect ratio : 2.40:1
    Frame rate mode : Constant
    Frame rate : 24.000 FPS
    Color space : YUV
    Chroma subsampling : 4:2:0
    Bit depth : 8 bits
    Scan type : Progressive
    Bits/(Pixel*Frame) : 0.244
    Stream size : 2.47 GiB (91%)
    Language : English
    Default : Yes
    Forced : No
    Color range : Limited
    Color primaries : BT.709
    Transfer characteristics : BT.709
    Matrix coefficients : BT.709

    Audio
    ID : 2
    Format : AC-3
    Format/Info : Audio Coding 3
    Mode extension : CM (complete main)
    Format settings, Endianness : Big
    Codec ID : A_AC3
    Duration : 1 h 27 min
    Bit rate mode : Constant
    Bit rate : 384 kb/s
    Channel(s) : 6 channels
    Channel positions : Front: L C R, Side: L R, LFE
    Sampling rate : 48.0 kHz
    Frame rate : 31.250 FPS (1536 spf)
    Compression mode : Lossy
    Stream size : 241 MiB (9%)
    Language : Russian
    Default : Yes
    Forced : No

    Menu
    00:00:00.000 : en:Глава 1
    00:07:08.625 : en:Глава 2
    00:13:22.541 : en:Глава 3
    00:20:30.624 : en:Глава 4
    00:27:00.790 : en:Глава 5
    00:35:22.956 : en:Глава 6
    00:42:35.039 : en:Глава 7
    00:50:20.872 : en:Глава 8
    00:56:38.205 : en:Глава 9
    01:03:33.496 : en:Глава 10
    01:10:50.079 : en:Глава 11
    01:17:48.287 : en:Глава 12
    Скриншоты:



    © Оформление by .::Ворон::.
    piratbit.pw



  • Скачать Ёлки 5 через торрент http://pic.kartinco.top/images/6/ordi9.jpg Скачать фильм Ёлки 5 через торрент бесплантно в хорошем качестве Е:В этот новый год любимые герои «Ёлок» всё также делают глупости и надеются на чудо. Боре нужно как-то восстановить семейное счастье и ... 10 10 12
    Торрент: Зарегистрирован [2017-01-19 20:42] · скачан: 547 раз
    Статус: √ проверено
    Размер: 2.7 GB
    Как cкачать? Как скачать Ёлки 5 через торрент | qTorrent

    % Раздел Тема Автор DL S | L
    Детективы, Боевики, Триллеры [ 395 MB ] Алан Брэдли - Загадки Флавии де Люс 5. Я вещаю из гробницы [Мария Абалкина 2017 96 kbps MP3] bober100 Скачать
    1 | 0
    Гонзо [ 1.56 GB ] Озорные Кончалки 5 / Naughty Newcummers 5 [2017 All Sex Oral Gonzo Legal Teen Facial Couples Amateur WEB-DL 432p] Split Scenes sheker187 Скачать
    1 | 0
    Фантастика [ 149 MB ] Крессида Коуэлл - Как приручить дракона 5. Как разбудить дракона [Абалкина Мария 2016 96 kbps MP3] bober100 Скачать
    1 | 0

    28-11-2019 20:33  

    Отключить всю рекламу на сайте

    19-01-2017 22:42 Ёлки 5 Скачать торрент  

    Ворон, зачем???

    При поддержке рекламы и фонда деградантов.piratbit.pw



    20-01-2017 03:09 Ёлки 5 Скачать торрент  

    Мои глаза... piratbit.pw



    20-01-2017 03:56 Ёлки 5 Скачать торрент  

    Боже, уберите это убожество.
    Быдлоелкиpiratbit.pw



    20-01-2017 04:39 Ёлки 5 Скачать торрент  

    PiratMan, 5.3. Запрещены неаргументированные отрицательные комментарии в отношении релиза; в адрес релизера; в адрес других участников обсуждения.
    Помните, раздачи на трекере ни в коей мере не предназначены для удовлетворения ваших личных запросов, если не нравится раздача или скорость раздачи - попробуйте поискать что-либо более подходящее вам без негативных комментариев здесь.piratbit.pw



      Дорогой пользователь! Огромная просьба, поблагодарите релизера, оцените раздачу и оставьте свои комментарий, если Вы скачали Ёлки 5 через торрент бесплатно! Внесите свою лепту в развитие PiratBit!
      Комментировать посты могут только пользователи прошедшие не сложную регистрацию
      Показать сообщения:    

      Ёлки 5 через торрент
      Скачать бесплатно Ёлки 5
      Ёлки 5 скачать торрент
      Ёлки 5 смотреть онлайн
      Cкачать фильм Ёлки 5 бесплатно
      Ёлки 5 скачать торрент в хорошем качестве
      Ёлки 5 смотреть онлайн бесплатно в хорошем качестве


      Вы не можете начинать темы
      Вы не можете отвечать на сообщения
      Вы не можете редактировать свои сообщения
      Вы не можете удалять свои сообщения
      Вы не можете голосовать в опросах
      Вы не можете прикреплять файлы к сообщениям
      Вы можете скачивать файлы