Marvel's Avengers Deluxe Edition (супер цена) 159р. Внимание количество ограничено!!!

2 сезон

iTunes

iTunes

1

iTunes

iTunes

iTunes

WEBRip

iTunes

30
pack

Новость дня

ВАЖНО

!!Акция!!

Alien_RageХит недели

RePack

Horizon Zero Dawn

ИГРА 18+

pack

RePack

jed

!!Акция!!

Alien_Rage

RePack

fifa19

RePack

Assassins Creed: Odyssey

RePack

NEED FOR SPEED™ PAYBACK

4 сезон

9 сезон

Бесстыжие 9 сезон

Все сериалы

все сериалы на PB.wtf

RePack

FAR CRY 5
  

Частное пионерское 2 (Александр Карпиловский) [2015, Россия, детский, приключения, семейный, WEB-DLRip от AVP Studio] piratbit.pw

Частное пионерское 2 через торрент piratbit.pw

Размер: 1.09 GB | Добавлен: 3 года 7 мес. назад | Торрент скачан:62 раза
Скачать  

19-01-2017 20:40 Частное пионерское 2 Скачать торрент  

Частное пионерское 2
Страна: Россия
Производство: ООО «Кинопрограмма ХХI век»

Жанр: детский, приключения, семейный
Год выпуска: 2015
Продолжительность: 01:39:14

Перевод: Не требуется
Cубтитры: нет
Оригинальная аудиодорожка: русский

Режиссер: Александр Карпиловский

В ролях:
Семён Трескунов, Егор Клинаев, Анфиса Вистингаузен, Василий Мищенко, Марианна Шульц, Тимофей Трибунцев, Екатерина Кузнецова (IV), Сергей Баталов, Михаил Занадворов, Илья Ермолов, Софико Квирквелия...
Полный список актёров

Описание:
Прошло два года. Наши герои выросли. Димка, Мишка и Лена едут в пионерский лагерь на море. Вместе с ними любимая собака Савва. В лагере их ждут необыкновенные приключения, сокровища, дуэли, пещеры и многое другое. И, конечно, первая любовь с настоящими шекспировскими страстями.

Источник: WEB-DL 1080p
Качество видео: WEB-DLRip
Формат видео: AVI

Видео: 720x304 (2,35:1), 25 fps, XviD ~ 1363 kbps avg, 0.249 bit/pixel
Аудио: 48 kHz, Dolby Digital AC3 2.0, 192 kbps

Раздача от:
Общее
Полное имя : Chastnoe.pionerskoe-2.2015.WEB-DLRip_[New-team]_by_AVP_Studio.avi
Формат : AVI
Формат/Информация : Audio Video Interleave
Размер файла : 1,09 Гбайт
Продолжительность : 1 ч. 39 м.
Общий поток : 1564 Кбит/сек
Программа кодирования : VirtualDubMod 1.5.10.3 | www.virtualdub-fr.org || (build 2550/release)
Библиотека кодирования : VirtualDubMod build 2550/release

Видео
Идентификатор : 0
Формат : MPEG-4 Visual
Профиль формата : Advanced Simple@L5
Параметр BVOP формата : 1
Параметр QPel формата : Нет
Параметр GMC формата : Без точки перехода
Параметр матрицы формата : Выборочная
Идентификатор кодека : XVID
Идентификатор кодека/Подсказка : XviD
Продолжительность : 1 ч. 39 м.
Битрейт : 1363 Кбит/сек
Ширина : 720 пикселей
Высота : 304 пикселя
Соотношение сторон : 2,35:1
Частота кадров : 25,000 кадров/сек
Цветовое пространство : YUV
Субдискретизация насыщенности : 4:2:0
Битовая глубина : 8 бит
Тип развёртки : Прогрессивная
Метод сжатия : С потерями
Бит/(Пиксели*Кадры) : 0.249
Размер потока : 972 Мбайт (87%)
Библиотека кодирования : XviD 73

Аудио
Идентификатор : 1
Формат : AC-3
Формат/Информация : Audio Coding 3
Расширение режима : CM (complete main)
Параметр Endianness формата : Big
Идентификатор кодека : 2000
Продолжительность : 1 ч. 39 м.
Вид битрейта : Постоянный
Битрейт : 192 Кбит/сек
Каналы : 2 канала
Расположение каналов : Front: L R
Частота : 48,0 КГц
Частота кадров : 31,250 кадров/сек (1536 spf)
Битовая глубина : 16 бит
Метод сжатия : С потерями
Размер потока : 137 Мбайт (12%)
Выравнивание : Разделение по промежуткам
Продолжительность промежутка : 40 мс. (1,00 видеокадр)
Время предзагрузки промежутка : 500 мс
piratbit.pw



Скачать Частное пионерское 2 через торрент http://s019.radikal.ru/i631/1701/69/33b35797eadf.png Скачать фильм Частное пионерское 2 через торрент бесплантно в хорошем качестве Описание:Прошло два года. Наши герои выросли. Димка, Мишка и Лена едут в пионерский лагерь на море. Вместе с ними любимая собака Савва. В ... 5 10 1
Торрент: Зарегистрирован [2017-01-19 20:40] · скачан: 62 раз
Статус: √ проверено
Размер: 1.09 GB
Как cкачать? Как скачать Частное пионерское 2 через торрент | qTorrent

% Раздел Тема Автор DL S | L
Детские отечественные фильмы [ 2.17 GB ] Частное пионерское 2 [2015 Россия детский WEB-DLRip 720p от AVP Studio] AVP Studio Скачать
11 | 1
Детские отечественные фильмы [ 3.65 GB ] Частное пионерское 2 [2015 детский WEBRip 1080p] АнтуанЭго Скачать
1 | 1
Наши новые фильмы 2015 [ 1.45 GB ] Частное пионерское 2 [2015 Россия детский WEB-DLRip-AVC от AVP Studio] AVP Studio Скачать
1 | 0
Детские отечественные фильмы [ 1.46 GB ] Частное пионерское 2 [2015 детский WEB-DLRip] bober100 Скачать
1 | 0
Детские отечественные фильмы [ 746 MB ] Частное пионерское 2 [2015 Россия детский WEB-DLRip от AVP Studio] AVP Studio Скачать
1 | 0

28-11-2019 20:33  

Отключить всю рекламу на сайте

    Дорогой пользователь! Огромная просьба, поблагодарите релизера, оцените раздачу и оставьте свои комментарий, если Вы скачали Частное пионерское 2 через торрент бесплатно! Внесите свою лепту в развитие PiratBit!
    Комментировать посты могут только пользователи прошедшие не сложную регистрацию
    Показать сообщения:    

    Частное пионерское 2 через торрент
    Скачать бесплатно Частное пионерское 2
    Частное пионерское 2 скачать торрент
    Частное пионерское 2 смотреть онлайн
    Cкачать фильм Частное пионерское 2 бесплатно
    Частное пионерское 2 скачать торрент в хорошем качестве
    Частное пионерское 2 смотреть онлайн бесплатно в хорошем качестве


    Вы не можете начинать темы
    Вы не можете отвечать на сообщения
    Вы не можете редактировать свои сообщения
    Вы не можете удалять свои сообщения
    Вы не можете голосовать в опросах
    Вы не можете прикреплять файлы к сообщениям
    Вы можете скачивать файлы