Ссылка на приватное зеркало нашего сайта всего за 1$. Внимание количество ограничено!!!

2 сезон

iTunes

iTunes

1

iTunes

iTunes

iTunes

WEBRip

iTunes

30
pack

Новость дня

ВАЖНО

!!Акция!!

Alien_RageХит недели

RePack

Horizon Zero Dawn

ИГРА 18+

pack

RePack

jed

!!Акция!!

Alien_Rage

RePack

fifa19

RePack

Assassins Creed: Odyssey

RePack

NEED FOR SPEED™ PAYBACK

4 сезон

9 сезон

Бесстыжие 9 сезон

Все сериалы

все сериалы на PB.wtf

RePack

FAR CRY 5
  

Частное пионерское 2 (Александр Карпиловский) [2015 г., детский, приключения, семейный, WEBRip 1080p] piratbit.pw

Частное пионерское 2 через торрент piratbit.pw

Качают: 1 [ 0 KB/s ]
Размер: 3.65 GB | Добавлен: 3 года 8 мес. назад | Торрент скачан:37 раз
Скачать  

16-01-2017 20:31 Частное пионерское 2 Скачать торрент  

Частное пионерское 2
Год выпуска: 2015
Страна: Россия
Жанр: детский, приключения, семейный
Продолжительность: 01:39:43
Перевод: Не требуется [Русский]
Субтитры: отсутствуют

Режиссер: Александр Карпиловский

Бюджет: 50 000 000 руб.
Премьера в мире: 14 апреля 2015

В ролях: Семён Трескунов; Егор Клинаев; Анфиса Вистингаузен; Екатерина Кузнецова; Марианна Шульц; Сергей Баталов; Илья Ермолов; Василий Мищенко; Тимофей Трибунцев; Александра Ртищева

Описание: Два года спустя. Наши герои выросли. Теперь им 14 лет. Димка, Мишка и Лена едут в пионерский̆ лагерь на море. Вместе с ними любимая собака Савва. В лагере их ждут необыкновенные приключения, сокровища, дуэли, пещеры и многое другое. И, конечно, первая любовь с настоящими шекспировскими страстями.



Доп. информация: Фильм на русском языке, несмотря на то, что MediaInfo указывает английский.

Качество: WEBRip 1080p
Формат: MP4
Видео кодек: AVC
Аудио кодек: AAC
Видео: AVC, 1920*808 (2,40:1), 5102 Kbps, 25,000 fps
Аудио#1: Русский 140 кбит/сек, 48,0 КГц, 2 канала, AAC (LC)
Релиз от: АнтуанЭго


Общее
Полное имя : Частное пионерское 2.mp4
Формат : MPEG-4
Профиль формата : Base Media
Идентификатор кодека : isom (isom/iso2/avc1/mp41)
Размер файла : 3,65 Гбайт
Продолжительность : 1 ч. 39 м.
Общий поток : 5246 Кбит/сек
Дата кодирования : UTC 1904-01-01 00:00:00
Дата пометки : UTC 1904-01-01 00:00:00
Программа кодирования : Lavf55.33.100

Видео
Идентификатор : 1
Формат : AVC
Формат/Информация : Advanced Video Codec
Профиль формата : High@L4
Параметр CABAC формата : Да
Параметр ReFrames формата : 4 кадра
Идентификатор кодека : avc1
Идентификатор кодека/Информация : Advanced Video Coding
Продолжительность : 1 ч. 39 м.
Битрейт : 5120 Кбит/сек
Ширина : 1920 пикселей
Высота : 808 пикселей
Соотношение сторон : 2,40:1
Режим частоты кадров : Постоянный
Частота кадров : 25,000 кадров/сек
Цветовое пространство : YUV
Субдискретизация насыщенности : 4:2:0
Битовая глубина : 8 бит
Тип развёртки : Прогрессивная
Бит/(Пиксели*Кадры) : 0.132
Размер потока : 3,55 Гбайт (97%)
Библиотека кодирования : x264 core 142
Настройки программы : cabac=1 / ref=3 / deblock=1:0:0 / analyse=0x3:0x113 / me=hex / subme=7 / psy=1 / psy_rd=1.00:0.00 / mixed_ref=1 / me_range=16 / chroma_me=1 / trellis=1 / 8x8dct=1 / cqm=0 / deadzone=21,11 / fast_pskip=1 / chroma_qp_offset=-2 / threads=36 / lookahead_threads=6 / sliced_threads=0 / nr=0 / decimate=1 / interlaced=0 / bluray_compat=0 / constrained_intra=0 / bframes=6 / b_pyramid=2 / b_adapt=1 / b_bias=0 / direct=1 / weightb=1 / open_gop=0 / weightp=2 / keyint=200 / keyint_min=20 / scenecut=0 / intra_refresh=0 / rc_lookahead=40 / rc=2pass / mbtree=1 / bitrate=5120 / ratetol=1.0 / qcomp=0.60 / qpmin=0 / qpmax=69 / qpstep=4 / cplxblur=20.0 / qblur=0.5 / vbv_maxrate=7680 / vbv_bufsize=20480 / nal_hrd=none / filler=0 / ip_ratio=1.40 / aq=1:1.00
Язык : English
Дата кодирования : UTC 1904-01-01 00:00:00
Дата пометки : UTC 2016-07-01 16:23:34

Аудио
Идентификатор : 2
Формат : AAC
Формат/Информация : Advanced Audio Codec
Профиль формата : LC
Идентификатор кодека : 40
Продолжительность : 1 ч. 39 м.
Duration_LastFrame : 43 мс.
Вид битрейта : Постоянный
Битрейт : 140 Кбит/сек
Каналы : 2 канала
Расположение каналов : Front: L R
Частота : 48,0 КГц
Частота кадров : 46,875 кадров/сек (1024 spf)
Метод сжатия : С потерями
Размер потока : 99,6 Мбайт (3%)
Язык : English
Default : Да
Alternate group : 1
Дата кодирования : UTC 1904-01-01 00:00:00
Дата пометки : UTC 2016-07-01 16:23:34

piratbit.pw



Скачать Частное пионерское 2 через торрент http://i90.fastpic.ru/big/2017/0117/85/8ec9e77b24aed860b8b820beabc56785.jpg Скачать фильм Частное пионерское 2 через торрент бесплантно в хорошем качестве Описание: Два года спустя. Наши герои выросли. Теперь им 14 лет. Димка, Мишка и Лена едут в пионерский̆ лагерь на море. Вместе с ними ... 10 10 7
Info! Золотая раздача, скачанное не засчитывается.
Торрент: Зарегистрирован [2017-01-16 20:31] · скачан: 37 раз
Статус: √ проверено
Размер: 3.65 GB
Как cкачать? Как скачать Частное пионерское 2 через торрент | qTorrent

% Раздел Тема Автор DL S | L
Детские отечественные фильмы [ 2.17 GB ] Частное пионерское 2 [2015 Россия детский WEB-DLRip 720p от AVP Studio] AVP Studio Скачать
10 | 1
Наши новые фильмы 2015 [ 1.45 GB ] Частное пионерское 2 [2015 Россия детский WEB-DLRip-AVC от AVP Studio] AVP Studio Скачать
1 | 0
Детские отечественные фильмы [ 1.46 GB ] Частное пионерское 2 [2015 детский WEB-DLRip] bober100 Скачать
1 | 0
Детские отечественные фильмы [ 746 MB ] Частное пионерское 2 [2015 Россия детский WEB-DLRip от AVP Studio] AVP Studio Скачать
1 | 0
Детские отечественные фильмы [ 1.09 GB ] Частное пионерское 2 [2015 Россия детский WEB-DLRip от AVP Studio] AVP Studio Скачать
1 | 0


Последний раз редактировалось: АнтуанЭго (2019-04-13 05:47), всего редактировалось 1 раз

28-11-2019 20:33  

Отключить всю рекламу на сайте

27-01-2017 03:52 Частное пионерское 2 Скачать торрент  

хороший фильм добрый смысловой, но поймут дети старше 13 лет для малышей не пойдет. Состав хороший можно посмотреть. Жизненный фильмpiratbit.pw



    Дорогой пользователь! Огромная просьба, поблагодарите релизера, оцените раздачу и оставьте свои комментарий, если Вы скачали Частное пионерское 2 через торрент бесплатно! Внесите свою лепту в развитие PiratBit!
    Комментировать посты могут только пользователи прошедшие не сложную регистрацию
    Показать сообщения:    

    Частное пионерское 2 через торрент
    Скачать бесплатно Частное пионерское 2
    Частное пионерское 2 скачать торрент
    Частное пионерское 2 смотреть онлайн
    Cкачать фильм Частное пионерское 2 бесплатно
    Частное пионерское 2 скачать торрент в хорошем качестве
    Частное пионерское 2 смотреть онлайн бесплатно в хорошем качестве


    Вы не можете начинать темы
    Вы не можете отвечать на сообщения
    Вы не можете редактировать свои сообщения
    Вы не можете удалять свои сообщения
    Вы не можете голосовать в опросах
    Вы не можете прикреплять файлы к сообщениям
    Вы можете скачивать файлы