Marvel's Avengers Deluxe Edition (супер цена) 159р. Внимание количество ограничено!!!

2 сезон

iTunes

iTunes

1

iTunes

iTunes

iTunes

WEBRip

iTunes

30
pack

Новость дня

ВАЖНО

!!Акция!!

Alien_RageХит недели

RePack

Horizon Zero Dawn

ИГРА 18+

pack

RePack

jed

!!Акция!!

Alien_Rage

RePack

fifa19

RePack

Assassins Creed: Odyssey

RePack

NEED FOR SPEED™ PAYBACK

4 сезон

9 сезон

Бесстыжие 9 сезон

Все сериалы

все сериалы на PB.wtf

RePack

FAR CRY 5
  

Дуэлянт (Алексей Мизгирёв ) [2016, драма, BDRip 720p от potroks] Лицензия piratbit.pw

Дуэлянт через торрент piratbit.pw

Размер: 4.37 GB | Добавлен: 3 года 8 мес. назад | Торрент скачан:1319 раз
Скачать  

16-01-2017 07:41 Дуэлянт Скачать торрент  

Дуэлянт

Год выпуска: 2016
Страна: Россия / Нон-стоп Продакшн
Жанр: драма
Продолжительность: 01:49:03
Перевод: Оригинал [Blu-ray RUS]
Субтитры: русские (BONNIE [SDH])
Навигация по главам: есть
Режиссер: Алексей Мизгирёв
В ролях:

Пётр Фёдоров (Яковлев / Колычев), Владимир Машков (граф Беклемишев), Юлия Хлынина (Марфа Тучкова), Франциска Петри (великая княгиня Александра Иосифовна), Мартин Вуттке (немецкий барон), Сергей Гармаш (однорукий дворянин), Павел Табаков (князь Тучков), Юрий Колокольников (Басаргин, кредитор графа), Александр Яценко (Яковлев младший), Юрий Кузнецов (камердинер), Дмитрий Куличков (Чичагов), Павел Кузьмин (капитан Липранди)
Описание: В центре сюжета профессиональный дуэлянт, который зарабатывает на жизнь, участвуя в поединках за других людей.

Качество: BDRip 720p
Формат: MKV
Видео: AVC, 1280x544 (2.35:1), 5100 kbps, 24 fps, 0,305 bpp
Аудио: русский / AC3 / 5.1 / 48 kHz / 640 kbps / 16 bit
General
Unique ID : 185556484125502771054338286574435723434 (0x8B98E100970789B68B7CAD8BA67E68AA)
Complete name : D:\Duelyant.2016.RUS.BDRip.720p.-HELLYWOOD.mkv
Format : Matroska
Format version : Version 4 / Version 2
File size : 4.37 GiB
Duration : 1 h 49 min
Overall bit rate : 5 734 kb/s
Movie name : Дуэлянт (2016)
Encoded date : UTC 2017-01-16 07:25:20
Writing application : mkvmerge v5.9.0 ('On The Loose') built on Dec 15 2012 16:39:58
Writing library : libebml v1.3.0 + libmatroska v1.4.0

Video
ID : 1
Format : AVC
Format/Info : Advanced Video Codec
Format profile : High@L4.1
Format settings, CABAC : Yes
Format settings, ReFrames : 10 frames
Codec ID : V_MPEG4/ISO/AVC
Duration : 1 h 49 min
Bit rate : 5 100 kb/s
Width : 1 280 pixels
Height : 544 pixels
Display aspect ratio : 2.35:1
Frame rate mode : Constant
Frame rate : 24.000 FPS
Color space : YUV
Chroma subsampling : 4:2:0
Bit depth : 8 bits
Scan type : Progressive
Bits/(Pixel*Frame) : 0.305
Stream size : 3.79 GiB (87%)
Title : potroks
Writing library : x264 core 146 r2538 121396c
Encoding settings : cabac=1 / ref=10 / deblock=1:-2:-2 / analyse=0x3:0x113 / me=umh / subme=11 / psy=1 / psy_rd=1.05:0.05 / mixed_ref=1 / me_range=48 / chroma_me=1 / trellis=2 / 8x8dct=1 / cqm=0 / deadzone=21,11 / fast_pskip=0 / chroma_qp_offset=-3 / threads=9 / lookahead_threads=2 / sliced_threads=0 / nr=0 / decimate=0 / interlaced=0 / bluray_compat=0 / constrained_intra=0 / bframes=11 / b_pyramid=2 / b_adapt=2 / b_bias=0 / direct=3 / weightb=1 / open_gop=0 / weightp=2 / keyint=240 / keyint_min=23 / scenecut=40 / intra_refresh=0 / rc_lookahead=60 / rc=2pass / mbtree=0 / bitrate=5100 / ratetol=1.0 / qcomp=0.70 / qpmin=0 / qpmax=69 / qpstep=4 / cplxblur=20.0 / qblur=0.5 / vbv_maxrate=14000 / vbv_bufsize=14000 / nal_hrd=none / filler=0 / ip_ratio=1.40 / pb_ratio=1.30 / aq=1:0.80
Language : Russian
Default : Yes
Forced : No

Audio
ID : 2
Format : AC-3
Format/Info : Audio Coding 3
Mode extension : CM (complete main)
Format settings, Endianness : Big
Codec ID : A_AC3
Duration : 1 h 49 min
Bit rate mode : Constant
Bit rate : 640 kb/s
Channel(s) : 6 channels
Channel positions : Front: L C R, Side: L R, LFE
Sampling rate : 48.0 kHz
Frame rate : 31.250 FPS (1536 spf)
Compression mode : Lossy
Stream size : 499 MiB (11%)
Title : DD 5.1 @ 640 kbps - Blu-ray RUS
Language : Russian
Default : Yes
Forced : No

Text
ID : 3
Format : UTF-8
Codec ID : S_TEXT/UTF8
Codec ID/Info : UTF-8 Plain Text
Title : BONNIE [SDH]
Language : Russian
Default : No
Forced : No

Menu
00:00:00.000 : en:(01)00:00:00:000
00:09:44.291 : en:(02)00:09:44:291
00:16:05.083 : en:(03)00:16:05:083
00:23:55.666 : en:(04)00:23:55:666
00:37:25.083 : en:(05)00:37:25:083
00:48:23.541 : en:(06)00:48:23:541
00:58:41.166 : en:(07)00:58:41:166
01:07:47.041 : en:(08)01:07:47:041
01:16:38.166 : en:(09)01:16:38:166
01:23:24.625 : en:(10)01:23:24:625
01:30:59.708 : en:(11)01:30:59:708
01:37:55.041 : en:(12)01:37:55:041
01:49:03.291 : en:(13)01:49:03:291
piratbit.pw



Скачать Дуэлянт через торрент http://i90.fastpic.ru/big/2017/0116/7b/18fc04b4c0a547aff4fc2c7945741e7b.png Скачать фильм Дуэлянт через торрент бесплантно в хорошем качестве Описание: В центре сюжета дуэлянт, который зарабатывает на жизнь, участвуя в поединках за других людей. ... 9.9 10 25
Info! Золотая раздача, скачанное не засчитывается.
Торрент: Зарегистрирован [2017-01-16 07:41] · скачан: 1 319 раз
Статус: √ проверено
Размер: 4.37 GB
Как cкачать? Как скачать Дуэлянт через торрент | qTorrent

% Раздел Тема Автор DL S | L
Наши фильмы (HD, WEB-DL 720p, 1080p) [ 7.58 GB ] Дуэлянт [2016 BDRip 1080p] [] akulovitch Скачать
1 | 0
Наши новые фильмы 2016 [ 1.46 GB ] Дуэлянт [2016 BDRip] Оригинал [] Twi7ter Скачать
1 | 0
R.G. Resident & PiratVoice - Фильмы, Видео [ 2.31 GB ] Дуэлянт [2016 BDRip-AVC] Оригинал [] R.G.Resident schultz Скачать
1 | 0
Наши новые фильмы 2016 [ 1.45 GB ] Дуэлянт [2016 BDRip-AVC] bober100 Скачать
1 | 0

28-11-2019 20:33  

Отключить всю рекламу на сайте

17-01-2017 06:07 Дуэлянт Скачать торрент  

Хороший фильм. Жизненый кто скажет что на один раз не соглашусь. Посмотрю еще раз. Звук видео порядокpiratbit.pw



19-01-2017 12:57 Дуэлянт Скачать торрент  

alexsan891 писал(а):

Хороший фильм. Жизненый кто скажет что на один раз не соглашусь. Посмотрю еще раз. Звук видео порядок

Хороший фильм, но никак не жизненный. Не бывает такого, чтобы пуля принципиально не брала и нож не резал по заговору какой то шаманки. Фильм построен на фантазии, хотя сам сюжет весьма интересный.piratbit.pw



21-01-2017 11:39 Дуэлянт Скачать торрент  

PavelEr писал(а):

alexsan891 писал(а):

Хороший фильм. Жизненый кто скажет что на один раз не соглашусь. Посмотрю еще раз. Звук видео порядок

Хороший фильм, но никак не жизненный. Не бывает такого, чтобы пуля принципиально не брала и нож не резал по заговору какой то шаманки. Фильм построен на фантазии, хотя сам сюжет весьма интересный.

Не согласен, как раз такое и бываетpiratbit.pw



24-01-2017 20:30 Дуэлянт Скачать торрент  

svilders писал(а):

PavelEr писал(а):

alexsan891 писал(а):

Хороший фильм. Жизненый кто скажет что на один раз не соглашусь. Посмотрю еще раз. Звук видео порядок

Хороший фильм, но никак не жизненный. Не бывает такого, чтобы пуля принципиально не брала и нож не резал по заговору какой то шаманки. Фильм построен на фантазии, хотя сам сюжет весьма интересный.

Не согласен, как раз такое и бывает

Факты, факты господаpiratbit.pw



26-02-2017 15:17 Дуэлянт Скачать торрент  

Фильм хорош. По закону жанра, достаточно кровавых сцен. Слабонервным, закрывать глаза, но тогда пол фильма пропустишь. piratbit.pw



    Дорогой пользователь! Огромная просьба, поблагодарите релизера, оцените раздачу и оставьте свои комментарий, если Вы скачали Дуэлянт через торрент бесплатно! Внесите свою лепту в развитие PiratBit!
    Комментировать посты могут только пользователи прошедшие не сложную регистрацию
    Показать сообщения:    

    Дуэлянт через торрент
    Скачать бесплатно Дуэлянт
    Дуэлянт скачать торрент
    Дуэлянт смотреть онлайн
    Cкачать фильм Дуэлянт бесплатно
    Дуэлянт скачать торрент в хорошем качестве
    Дуэлянт смотреть онлайн бесплатно в хорошем качестве


    Вы не можете начинать темы
    Вы не можете отвечать на сообщения
    Вы не можете редактировать свои сообщения
    Вы не можете удалять свои сообщения
    Вы не можете голосовать в опросах
    Вы не можете прикреплять файлы к сообщениям
    Вы можете скачивать файлы