Marvel's Avengers Deluxe Edition (супер цена) 159р. Внимание количество ограничено!!!

2 сезон

iTunes

iTunes

1

iTunes

iTunes

iTunes

WEBRip

iTunes

30
pack

Новость дня

ВАЖНО

!!Акция!!

Alien_RageХит недели

RePack

Horizon Zero Dawn

ИГРА 18+

pack

RePack

jed

!!Акция!!

Alien_Rage

RePack

fifa19

RePack

Assassins Creed: Odyssey

RePack

NEED FOR SPEED™ PAYBACK

4 сезон

9 сезон

Бесстыжие 9 сезон

Все сериалы

все сериалы на PB.wtf

RePack

FAR CRY 5
  

В зоне доступа любви (Вера Сторожева ) [2016, комедия, мелодрама, HDTVRip 720p] [Русский] piratbit.pw

В зоне доступа любви через торрент piratbit.pw

Размер: 2.3 GB | Добавлен: 3 года 8 мес. назад | Торрент скачан:109 раз
Скачать  

11-01-2017 15:38 В зоне доступа любви Скачать торрент  

В зоне доступа любви

Год выпуска: 2016
Страна: Россия
Жанр: комедия, мелодрама
Продолжительность: 01:32:09
Перевод: Не требуется [Русский]
Режиссер: Вера Сторожева
В ролях: Светлана Ходченкова (Анна), Дмитрий Дюжев (Андрей), Алексей Колган, Антонина Паперная
Описание:
Зимняя сказка о случайной встрече двух незнакомых людей. Анне 35 лет, она отоларинголог, работает в районной поликлинике. Безотказная «врач и нянька всего подъезда» недавно пережила продолжительный и бесперспективный роман с женатым мужчиной. Ее новому избраннику Андрею 38 лет, он бизнесмен средней руки, брутальный, современный, с неудачным браком в прошлом и четко распланированным будущим. Два человека из разных миров - их встреча практически невозможна. Но только не в канун Нового года!

Качество: HDTVRip 720p
Формат: MKV
Видео: AVC, 1280x720 (16:9), 3374 kbps, 25 fps, 0,146 bpp
Аудио: русский / MPEG-1 Audio layer 2 / 2.0 / 48 kHz / 192 kbps /

General
Unique ID V.zone.dostupa.lyubvi.2016.HDTVRip.(720p).Nikolspup.mkv
Format : Matroska
Format version : Version 2
File size : 2.30 GiB
Duration : 1 h 32 min
Overall bit rate : 3 567 kb/s
Encoded date : UTC 2017-01-02 07:15:41
Writing application : mkvmerge v5.8.0 ('No Sleep / Pillow') built on Sep 2 2012 15:37:04
Writing library : libebml v1.2.3 + libmatroska v1.3.0

Video
ID : 1
Format : AVC
Format/Info : Advanced Video Codec
Format profile : High@L4.1
Format settings, CABAC : Yes
Format settings, ReFrames : 9 frames
Codec ID : V_MPEG4/ISO/AVC
Duration : 1 h 32 min
Bit rate : 3 374 kb/s
Width : 1 280 pixels
Height : 720 pixels
Display aspect ratio : 16:9
Frame rate mode : Constant
Frame rate : 25.000 FPS
Color space : YUV
Chroma subsampling : 4:2:0
Bit depth : 8 bits
Scan type : Progressive
Bits/(Pixel*Frame) : 0.146
Stream size : 2.13 GiB (93%)
Writing library : x264 core 146 r2538 121396c
Encoding settings : cabac=1 / ref=9 / deblock=1:-3:-3 / analyse=0x3:0x113 / me=umh / subme=11 / psy=1 / psy_rd=1.00:0.20 / mixed_ref=1 / me_range=32 / chroma_me=1 / trellis=2 / 8x8dct=1 / cqm=0 / deadzone=21,11 / fast_pskip=0 / chroma_qp_offset=-3 / threads=4 / lookahead_threads=1 / sliced_threads=0 / nr=0 / decimate=0 / interlaced=0 / bluray_compat=0 / constrained_intra=0 / bframes=12 / b_pyramid=2 / b_adapt=2 / b_bias=0 / direct=3 / weightb=1 / open_gop=0 / weightp=2 / keyint=250 / keyint_min=25 / scenecut=40 / intra_refresh=0 / rc_lookahead=60 / rc=2pass / mbtree=0 / bitrate=3374 / ratetol=1.0 / qcomp=0.60 / qpmin=0 / qpmax=69 / qpstep=4 / cplxblur=20.0 / qblur=0.5 / vbv_maxrate=14000 / vbv_bufsize=14000 / nal_hrd=none / filler=0 / ip_ratio=1.40 / pb_ratio=1.30 / aq=3:0.80
Default : No
Forced : No
Color range : Limited
Color primaries : BT.709
Transfer characteristics : BT.709
Matrix coefficients : BT.709

Audio
ID : 2
Format : MPEG Audio
Format version : Version 1
Format profile : Layer 2
Codec ID : A_MPEG/L2
Codec ID/Hint : MP2
Duration : 1 h 32 min
Bit rate mode : Constant
Bit rate : 192 kb/s
Channel(s) : 2 channels
Sampling rate : 48.0 kHz
Compression mode : Lossy
Stream size : 127 MiB (5%)
Language : Russian
Default : Yes
Forced : Yes
piratbit.pw



Скачать В зоне доступа любви через торрент http://i4.imageban.ru/out/2017/01/11/a350dc23a261b54b43a10f85f7be3eaf.jpg Скачать фильм В зоне доступа любви через торрент бесплантно в хорошем качестве Описание: Зимняя сказка о случайной встрече двух незнакомых людей. Анне 35 лет, она отоларинголог, работает в районной поликлинике. ... 9 10 6
Info! Золотая раздача, скачанное не засчитывается.
Торрент: Зарегистрирован [2017-01-11 15:38] · скачан: 109 раз
Статус: √ проверено
Размер: 2.3 GB
Как cкачать? Как скачать В зоне доступа любви через торрент | qTorrent

% Раздел Тема Автор DL S | L
Наши новые фильмы 2016 [ 1.45 GB ] В зоне доступа любви [2016 HDTVRip by _Один_777] Один 777 Скачать
1 | 0
Наши новые фильмы 2016 [ 1.37 GB ] В зоне доступа любви [2016 HDTVRip] oleg8 Скачать
1 | 0
Наши новые фильмы 2016 [ 749 MB ] В зоне доступа любви [2016 HDTVRip by _Один_777] Один 777 Скачать
1 | 0
Наши новые фильмы 2016 [ 748 MB ] В зоне доступа любви [2016 HDTVRip] Sherif Скачать
1 | 0

28-11-2019 20:33  

Отключить всю рекламу на сайте

    Дорогой пользователь! Огромная просьба, поблагодарите релизера, оцените раздачу и оставьте свои комментарий, если Вы скачали В зоне доступа любви через торрент бесплатно! Внесите свою лепту в развитие PiratBit!
    Комментировать посты могут только пользователи прошедшие не сложную регистрацию
    Показать сообщения:    

    В зоне доступа любви через торрент
    Скачать бесплатно В зоне доступа любви
    В зоне доступа любви скачать торрент
    В зоне доступа любви смотреть онлайн
    Cкачать фильм В зоне доступа любви бесплатно
    В зоне доступа любви скачать торрент в хорошем качестве
    В зоне доступа любви смотреть онлайн бесплатно в хорошем качестве


    Вы не можете начинать темы
    Вы не можете отвечать на сообщения
    Вы не можете редактировать свои сообщения
    Вы не можете удалять свои сообщения
    Вы не можете голосовать в опросах
    Вы не можете прикреплять файлы к сообщениям
    Вы можете скачивать файлы