Marvel's Avengers Deluxe Edition (супер цена) 159р. Внимание количество ограничено!!!

2 сезон

iTunes

iTunes

1

iTunes

iTunes

iTunes

WEBRip

iTunes

30
pack

Новость дня

ВАЖНО

!!Акция!!

Alien_RageХит недели

RePack

Horizon Zero Dawn

ИГРА 18+

pack

RePack

jed

!!Акция!!

Alien_Rage

RePack

fifa19

RePack

Assassins Creed: Odyssey

RePack

NEED FOR SPEED™ PAYBACK

4 сезон

9 сезон

Бесстыжие 9 сезон

Все сериалы

все сериалы на PB.wtf

RePack

FAR CRY 5
  

Против всех правил (Вернер Херцог ) [2016, Комедия, HDTVRip 720p] [Русский] piratbit.pw

Против всех правил через торрент piratbit.pw

Размер: 2.26 GB | Добавлен: 3 года 8 мес. назад | Торрент скачан:140 раз
Скачать  

11-01-2017 15:15 Против всех правил Скачать торрент  

Против всех правил

Год выпуска: 2016
Страна: Россия, «Энджи Продакшн»
Жанр: Комедия
Продолжительность: 01:27:27
Перевод: Не требуется [Русский]
Режиссер: Виктор Демент
В ролях: Алексей Макаров, Александр Яценко, Алексей Дмитриев, Маргарита Шубина, Анатолий Горячев, Тимур Боканча, Игорь Ливанов, Андрей Стоянов
Описание:
Полковником Колодой, завербованным иностранной разведкой, похищены секретные документы государственной важности. На самом деле, документы — фальшивка, дезинформация для зарубежных спецслужб. Слежка за предателем приводит оперативников в банк, где он оставляет документы в ячейке под номером 69. Чтобы установить, кто придет за ними, в банк под видом клиента приходит капитан Алексей Верещагин. По иронии судьбы, именно этот банк хочет ограбить доведенный до отчаяния кандидат наук и отец-одиночка Михаил Дрыскин. Увидев полицию, он с перепугу берет в заложники посетителей банка.

Качество: HDTVRip 720p
Формат: MKV
Видео: AVC, 1280x720 (16:9), 3500 kbps, 25 fps, 0,152 bpp
Аудио: русский / AC3 / 2.0 / 48 kHz / 192 kbps /

General
Unique ID Protiv.vseh.pravil.2016.HDTVRip.(720p).Nikolspup.mkv
Format : Matroska
Format version : Version 2
File size : 2.26 GiB
Duration : 1 h 27 min
Overall bit rate : 3 694 kb/s
Encoded date : UTC 2017-01-07 19:56:16
Writing application : mkvmerge v5.8.0 ('No Sleep / Pillow') built on Sep 2 2012 15:37:04
Writing library : libebml v1.2.3 + libmatroska v1.3.0

Video
ID : 1
Format : AVC
Format/Info : Advanced Video Codec
Format profile : High@L4.1
Format settings, CABAC : Yes
Format settings, ReFrames : 9 frames
Codec ID : V_MPEG4/ISO/AVC
Duration : 1 h 27 min
Bit rate : 3 500 kb/s
Width : 1 280 pixels
Height : 720 pixels
Display aspect ratio : 16:9
Frame rate mode : Constant
Frame rate : 25.000 FPS
Color space : YUV
Chroma subsampling : 4:2:0
Bit depth : 8 bits
Scan type : Progressive
Bits/(Pixel*Frame) : 0.152
Stream size : 2.09 GiB (93%)
Writing library : x264 core 146 r2538 121396c
Encoding settings : cabac=1 / ref=9 / deblock=1:-3:-3 / analyse=0x3:0x113 / me=umh / subme=11 / psy=1 / psy_rd=1.00:0.20 / mixed_ref=1 / me_range=32 / chroma_me=1 / trellis=2 / 8x8dct=1 / cqm=0 / deadzone=21,11 / fast_pskip=0 / chroma_qp_offset=-3 / threads=4 / lookahead_threads=1 / sliced_threads=0 / nr=0 / decimate=0 / interlaced=0 / bluray_compat=0 / constrained_intra=0 / bframes=12 / b_pyramid=2 / b_adapt=2 / b_bias=0 / direct=3 / weightb=1 / open_gop=0 / weightp=2 / keyint=250 / keyint_min=25 / scenecut=40 / intra_refresh=0 / rc_lookahead=60 / rc=2pass / mbtree=0 / bitrate=3500 / ratetol=1.0 / qcomp=0.60 / qpmin=0 / qpmax=69 / qpstep=4 / cplxblur=20.0 / qblur=0.5 / vbv_maxrate=14000 / vbv_bufsize=14000 / nal_hrd=none / filler=0 / ip_ratio=1.40 / pb_ratio=1.30 / aq=3:0.80
Default : No
Forced : No
Color range : Limited
Color primaries : BT.709
Transfer characteristics : BT.709
Matrix coefficients : BT.709

Audio
ID : 2
Format : AC-3
Format/Info : Audio Coding 3
Mode extension : CM (complete main)
Format settings, Endianness : Big
Codec ID : A_AC3
Duration : 1 h 27 min
Bit rate mode : Constant
Bit rate : 192 kb/s
Channel(s) : 2 channels
Channel positions : Front: L R
Sampling rate : 48.0 kHz
Frame rate : 31.250 FPS (1536 spf)
Compression mode : Lossy
Stream size : 120 MiB (5%)
Language : Russian
Default : Yes
Forced : Yes
piratbit.pw



Скачать Против всех правил через торрент http://i3.imageban.ru/out/2017/01/11/7c6dd7aff0e7ca2a5aad075e8e963a96.jpg Скачать фильм Против всех правил через торрент бесплантно в хорошем качестве Описание: Полковником Колодой, завербованным иностранной разведкой, похищены секретные документы государственной важности. На самом деле, ... 10 10 5
Торрент: Зарегистрирован [2017-01-11 15:15] · скачан: 140 раз
Статус: √ проверено
Размер: 2.26 GB
Как cкачать? Как скачать Против всех правил через торрент | qTorrent

% Раздел Тема Автор DL S | L
Наши новые фильмы 2016 [ 1.37 GB ] Против всех правил [2016 HDTVRip] oleg8 Скачать
1 | 0

28-11-2019 20:33  

Отключить всю рекламу на сайте

    Дорогой пользователь! Огромная просьба, поблагодарите релизера, оцените раздачу и оставьте свои комментарий, если Вы скачали Против всех правил через торрент бесплатно! Внесите свою лепту в развитие PiratBit!
    Комментировать посты могут только пользователи прошедшие не сложную регистрацию
    Показать сообщения:    

    Против всех правил через торрент
    Скачать бесплатно Против всех правил
    Против всех правил скачать торрент
    Против всех правил смотреть онлайн
    Cкачать фильм Против всех правил бесплатно
    Против всех правил скачать торрент в хорошем качестве
    Против всех правил смотреть онлайн бесплатно в хорошем качестве


    Вы не можете начинать темы
    Вы не можете отвечать на сообщения
    Вы не можете редактировать свои сообщения
    Вы не можете удалять свои сообщения
    Вы не можете голосовать в опросах
    Вы не можете прикреплять файлы к сообщениям
    Вы можете скачивать файлы